<?xml version="1.0" standalone="no"?>
<!DOCTYPE svg PUBLIC "-//W3C//DTD SVG 1.1//EN" "http://www.w3.org/Graphics/SVG/1.1/DTD/svg11.dtd" >
<svg xmlns="http://www.w3.org/2000/svg">
<metadata></metadata>
<defs>
<font id="calligraffitiregular" horiz-adv-x="701" >
<font-face units-per-em="1024" ascent="819" descent="-205" />
<missing-glyph horiz-adv-x="297" />
<glyph horiz-adv-x="1024" />
<glyph horiz-adv-x="1024" />
<glyph unicode="&#xd;" horiz-adv-x="1024" />
<glyph unicode=" "  horiz-adv-x="297" />
<glyph unicode="&#x09;" horiz-adv-x="297" />
<glyph unicode="&#xa0;" horiz-adv-x="297" />
<glyph unicode="!" horiz-adv-x="236" d="M256 754q0 -20 -1.5 -39t-3.5 -39q-7 -67 -17.5 -133t-21.5 -132q-8 -50 -14 -99t-13 -99l-2.5 -20t-3 -24.5t-3.5 -23.5t-4 -18q-2 -5 -7 -7.5t-10 -2.5q-11 0 -14 9q-5 19 -6.5 41t-1.5 42q0 54 9.5 106t19.5 105q10 58 22 114.5t23 113.5q4 20 7.5 38.5t6.5 37.5 q2 8 2.5 16.5t2.5 16.5q3 10 14 10q4 0 10 -4t6 -9zM168 22q0 -5 -6 -13v-2q0 -2 0.5 -4t0.5 -4q-7 -5 -9.5 -10.5t-13.5 -5.5q-10 0 -18.5 7.5t-8.5 17.5q0 17 3 28t24 11q10 0 19 -7t9 -18zM147 -5v4l-1 -1q0 -1 0.5 -1.5t0.5 -1.5z" />
<glyph unicode="&#x22;" horiz-adv-x="211" d="M365 728q0 -19 -11 -36q-4 -6 -8.5 -12.5t-8.5 -13.5q-21 -37 -46 -70q-1 0 -2.5 -0.5t-2.5 -0.5q-3 0 -10.5 7t-9.5 9q5 26 16.5 57.5t24.5 53.5q5 8 16 17t20 9t15.5 -5.5t6.5 -14.5zM283 728q0 -19 -11 -36q-4 -6 -8.5 -12.5t-8.5 -13.5q-21 -37 -46 -70 q-1 0 -2.5 -0.5t-2.5 -0.5q-2 0 -10 7t-10 9q5 26 16.5 57.5t25.5 53.5q5 8 16 17t20 9q8 0 14.5 -5.5t6.5 -14.5z" />
<glyph unicode="#" horiz-adv-x="846" d="M948 529q0 -11 -10 -14q-12 -4 -36.5 -6.5t-52 -3t-53 -0.5h-40.5q-66 -116 -129 -234q43 -1 85 -3.5t84 -7.5q6 -1 13 -1.5t13 -2.5q11 -3 11 -16q0 -11 -11 -14q-10 -3 -29 -5.5t-40 -3.5t-40.5 -1.5t-31.5 -0.5q-20 0 -41 0.5t-41 1.5q-19 -37 -37.5 -73.5 t-36.5 -74.5q-8 -17 -16 -35.5t-18 -35.5q-5 -6 -12 -6q-5 0 -11 3.5t-6 9.5q0 3 6 18.5t14.5 37t19.5 47t20.5 48t17 40t10.5 23.5q-39 2 -77.5 2h-77.5h-57t-57 -1q-19 -37 -37.5 -73.5t-36.5 -74.5q-8 -17 -16 -35.5t-18 -35.5q-5 -6 -12 -6q-5 0 -11 3.5t-6 9.5 q0 3 5.5 18.5t14 36.5t19 46t20 47t17 39.5t10.5 23.5q-29 -2 -58.5 -2.5t-58.5 -2.5q-15 -1 -29.5 -2t-29.5 -1q-6 0 -9.5 6t-3.5 11q0 10 10 13q14 4 29 5t29 3q35 5 70.5 8.5t71.5 5.5q29 63 61 123.5t65 121.5q-35 -1 -70.5 -2t-70.5 -3q-17 -1 -33.5 -2t-33.5 -1 q-6 0 -9.5 6t-3.5 11q0 10 11 13q15 4 33.5 5.5t34.5 3.5q42 5 83.5 9t83.5 7q20 36 41.5 71.5t45.5 70.5q6 10 13 20.5t15 19.5q3 4 10 4q6 0 12 -3.5t6 -10.5q0 -8 -10 -32t-23.5 -51t-26.5 -51.5t-18 -34.5q65 3 129 3.5t129 -0.5q20 35 40 68.5t43 66.5q6 9 12.5 19 t13.5 19q4 4 10 4t12.5 -3.5t6.5 -10.5q0 -8 -10 -31t-23 -50t-25.5 -51t-17.5 -33q10 0 32 -1.5t45.5 -3.5t44 -4t28.5 -5q11 -3 11 -16zM695 507q-98 3 -194 3h-61q-35 -60 -68.5 -120.5t-65.5 -122.5q67 4 134 4.5t134 0.5q29 60 59.5 118t61.5 117z" />
<glyph unicode="$" horiz-adv-x="533" d="M636 678q0 -7 -8 -13q-14 -9 -34 -15t-42.5 -10t-44 -6.5t-38.5 -3.5q-11 -51 -22.5 -101t-23.5 -101q17 -14 34 -29.5t31 -33.5t22.5 -38.5t8.5 -43.5q0 -31 -15 -61t-39 -55t-53 -44t-57 -28q-5 -23 -8 -46t-7 -46q-2 -11 -2.5 -23.5t-3.5 -23.5t-14 -11t-14 12 q-2 11 -2 24.5v24.5q0 20 1 40t3 40q-17 -3 -40 -1q-3 -22 -6.5 -43.5t-6.5 -44.5q-2 -9 -2.5 -20t-2.5 -21q-5 -11 -15 -11q-11 0 -14 12q-2 11 -2 24.5v24.5q0 22 1.5 43.5t3.5 42.5q-29 8 -55 23t-45.5 36.5t-30.5 48.5t-11 59q0 16 3.5 35t10.5 37.5t16.5 35.5t20.5 29 q4 6 10 6q16 0 16 -16q0 -3 -2 -7q-17 -26 -28 -53.5t-11 -60.5q0 -51 32.5 -84t79.5 -46q13 81 32.5 161.5t39.5 160.5q-21 19 -33 45.5t-12 54.5q0 18 7 38.5t21 33.5q12 11 33 21.5t37 15.5q8 29 14 57.5t13 57.5q2 11 4.5 29t6.5 26q3 10 13 10q5 0 9.5 -4t4.5 -9 q0 -11 -2.5 -23.5t-4.5 -23.5q-5 -28 -9.5 -55.5t-9.5 -54.5q12 2 24 2.5t25 1.5q6 26 12.5 52.5t11.5 53.5q2 9 4.5 25.5t5.5 24.5q4 10 13 10q5 0 9.5 -4t4.5 -9q0 -11 -2 -23t-4 -23q-5 -27 -9.5 -53.5t-9.5 -53.5h32q27 0 53 2.5t52 11.5q1 0 2 0.5t2 0.5q7 0 11.5 -5.5 t4.5 -11.5zM430 627q-12 -2 -24 -3.5t-24 -4.5q-8 -34 -15 -67t-15 -67q9 -7 17.5 -14t16.5 -14q11 42 22 84.5t22 85.5zM339 602q-27 -17 -27 -48q0 -14 7 -31zM467 282q0 31 -18 51t-39 39q-13 -56 -24.5 -111t-21.5 -111q17 8 35.5 22t33.5 32t24.5 38t9.5 40zM373 401 q-9 7 -17.5 13t-17.5 13q-17 -75 -33 -149t-29 -149h2q20 0 36 4q11 68 26.5 135t32.5 133z" />
<glyph unicode="%" horiz-adv-x="658" d="M390 640q0 -30 -10 -59t-28 -52.5t-44 -38t-58 -14.5q-21 0 -42 7t-37.5 19.5t-26.5 31t-10 42.5q0 27 8.5 53t24.5 47.5t37.5 38.5t47.5 26h1q7 5 17.5 7t16.5 2q21 0 39.5 -9.5t33 -25t22.5 -35.5t8 -40zM629 716q0 -1 -2 -6.5t-4 -12t-4.5 -12.5t-2.5 -7 q-33 -85 -78.5 -163.5t-94.5 -156.5q-94 -148 -206 -287q-20 -23 -39 -47t-39 -47q-4 -4 -9 -4q-6 0 -11.5 4.5t-5.5 11.5q0 2 2 6q22 32 44.5 62.5t44.5 61.5q46 66 90 132t86 134q35 57 67 116t66 117q15 27 31.5 56t36.5 53q3 6 10 6t12.5 -5t5.5 -12zM668 118 q0 -30 -10 -59t-28 -52.5t-44 -38t-58 -14.5q-21 0 -42 6.5t-37.5 19.5t-26.5 31.5t-10 41.5q0 58 32.5 101t85.5 65q9 4 17 6t18 2q21 0 39.5 -9.5t33 -25t22.5 -35t8 -39.5zM335 631q0 35 -19 58t-55 23q-11 -6 -23 -14q-25 -19 -43 -47t-17 -60l1 -11q1 -28 20.5 -41 t44.5 -13q22 0 39 9t28.5 24t17.5 33.5t6 38.5zM613 109q0 35 -19 58t-55 23q-17 -9 -32 -21.5t-26.5 -28.5t-18 -34.5t-5.5 -37.5v-11q1 -27 20.5 -40t45.5 -13q21 0 38 9t28.5 23.5t17.5 33.5t6 39z" />
<glyph unicode="&#x26;" horiz-adv-x="607" d="M607 306q0 -62 -26 -117t-69 -98q20 -30 40.5 -57t43.5 -54q5 -5 5 -12q0 -6 -4 -10.5t-10 -4.5q-8 0 -23.5 14.5t-32 33t-31 36.5t-19.5 25q-45 -35 -98.5 -56t-110.5 -21q-18 0 -39 3t-41.5 9t-39 15t-33.5 21q-17 13 -29.5 32.5t-21 42t-13 45.5t-4.5 44q0 52 26.5 94 t66.5 75t86.5 59.5t86.5 49.5q-2 17 -5 33.5t-3 33.5q0 34 8.5 67.5t25 63.5t41 54.5t56.5 38.5q9 4 18.5 6.5t19.5 2.5q34 0 58.5 -22t24.5 -57q0 -24 -7.5 -48t-20 -46.5t-28 -42.5t-31.5 -36q-22 -22 -46.5 -39t-50.5 -33q16 -86 44 -168.5t72 -158.5q37 38 60 85.5 t23 101.5q0 14 -2 27t-5 27v4q0 6 4 10.5t10 4.5q12 0 15 -12q5 -14 7 -32.5t2 -33.5zM508 694q0 17 -9 22t-24 5q-7 0 -11 -3q-49 -28 -74.5 -72t-25.5 -101q0 -21 3 -40q19 11 37 24t33 29q12 12 24.5 28.5t23 34.5t17 37t6.5 36zM459 94q-50 75 -82.5 158t-50.5 171 q-32 -18 -71.5 -40t-74 -50t-58.5 -62.5t-24 -76.5q0 -16 3 -34t9.5 -35.5t16 -33t21.5 -25.5q25 -20 59.5 -30t66.5 -10q51 0 98.5 18.5t86.5 49.5z" />
<glyph unicode="'" horiz-adv-x="129" d="M283 728q0 -19 -11 -36q-4 -6 -8.5 -12.5t-8.5 -13.5q-21 -37 -46 -70q-1 0 -2.5 -0.5t-2.5 -0.5q-2 0 -10 7t-10 9q5 25 16.5 57t25.5 54q5 8 16 17t20 9q8 0 14.5 -5.5t6.5 -14.5z" />
<glyph unicode="(" horiz-adv-x="284" d="M479 716q0 -5 -5 -10q-17 -14 -35.5 -25.5t-36.5 -25.5q-59 -45 -108 -99t-81 -122q-23 -50 -34 -103t-11 -107q0 -62 14 -117.5t42 -109.5q1 -2 1 -6q0 -6 -5.5 -10.5t-11.5 -4.5t-10 6q-19 25 -33 58t-23.5 68t-14 70.5t-4.5 66.5q0 78 24.5 155t68.5 143t106.5 116.5 t138.5 74.5h2q7 0 11.5 -5.5t4.5 -12.5z" />
<glyph unicode=")" horiz-adv-x="290" d="M321 523q0 -53 -15 -106t-40.5 -104t-59.5 -99.5t-73 -92t-80 -80.5t-81 -67q-5 -3 -7 -3q-7 0 -11.5 5.5t-4.5 11.5t4 9q17 16 33.5 31t32.5 32q66 67 121.5 143t92.5 163q16 36 24.5 74t8.5 77q0 45 -13 88t-41 79q-5 8 -11.5 14.5l-13.5 13.5l-2 4t-1 4q0 6 5 12t12 6 q2 0 6 -2q57 -33 85.5 -91t28.5 -122z" />
<glyph unicode="*" horiz-adv-x="258" d="M391 649q0 -24 -16 -36.5t-33 -23.5q-11 -7 -22.5 -12.5t-23.5 -10.5q9 -7 17.5 -14t17.5 -14q5 -5 13.5 -10.5t16.5 -12t14 -14t6 -15.5q0 -5 -3 -9.5t-5 -8.5q-9 -3 -17 -3q-13 0 -27 8.5t-27 21t-24 26t-18 24.5q-5 -10 -11 -18.5t-12 -18.5q-5 -8 -10 -17.5 t-11 -17.5t-13.5 -14t-18.5 -6t-14 10.5t-3 18.5q0 11 6.5 24t16 25.5t20 23.5t18.5 18q-11 6 -23 12.5t-23 12.5q-6 4 -13 6.5t-14 6.5q-16 7 -28 22q-4 8 -4 16q0 10 11.5 13.5t19.5 3.5q10 0 22.5 -5.5t25 -13.5t23.5 -17t18 -16v18.5t-1 18.5q0 9 -1.5 18t-1.5 19 q0 6 1 13t4 13.5t7.5 11t12.5 4.5q0 -1 1 -1h2q14 -6 21 -22.5t7 -30.5q0 -16 -1.5 -32t-5.5 -31l25 18q5 4 11.5 10.5t14 12.5t15.5 10t15 4q2 0 11.5 -5.5t10.5 -7.5v-6z" />
<glyph unicode="+" horiz-adv-x="492" d="M564 392q0 -5 -2.5 -9.5t-7.5 -5.5q-11 -3 -28.5 -3.5t-28.5 -1.5q-35 -2 -69 -4t-69 -3q0 -21 1 -42t1 -42q0 -11 -0.5 -26.5t-2.5 -31.5t-5 -31t-8 -25q-2 -4 -6.5 -6t-8.5 -2t-8.5 2t-6.5 7q-3 8 -5 21.5t-3 28t-1.5 28t-0.5 22.5q0 24 1 48l2 48q-21 -1 -42 -1.5 t-41 -0.5q-11 0 -27 0.5t-32 2.5t-31 5t-24 8q-9 4 -9 15q0 4 2.5 8.5t7.5 6.5q7 3 20.5 5t28 2.5t28.5 1t23 0.5q24 0 48 -0.5t48 -1.5q1 35 2 69t3 69q1 11 1 29t2 28q2 5 6 7.5t9 2.5t9 -2.5t6 -7.5q3 -11 3.5 -28t1.5 -29q2 -35 3.5 -69t3.5 -69q35 -1 69.5 -2t69.5 -3 q11 -1 28.5 -1t27.5 -2q5 -2 8 -6t3 -9z" />
<glyph unicode="," horiz-adv-x="117" d="M35 7q0 -15 -6.5 -31t-16 -31.5t-20 -29.5t-19.5 -25q0 -1 -2 -1q-1 0 -2 -1q-3 0 -10.5 7t-9.5 9q5 25 15 47.5t15 45.5l-10 10t-5 13q0 17 3 28t24 11q8 0 13.5 -3.5t10.5 -8.5q10 -10 15 -17.5t5 -22.5z" />
<glyph unicode="-" horiz-adv-x="503" d="M564 392q0 -5 -2.5 -9.5t-7.5 -5.5q-12 -3 -34 -4t-36 -2q-42 -3 -84.5 -4.5t-85.5 -2.5q-23 0 -45 -1t-44 -1q-11 0 -26.5 0.5t-32 2.5t-31 5t-24.5 8q-4 2 -6.5 6.5t-2.5 8.5t2.5 8.5t7.5 6.5q8 3 21 5t27.5 2.5t28.5 1t23 0.5q26 0 51 -1t51 -1q43 0 85 -1.5t85 -3.5 h16.5t19 -0.5t18.5 -1t15 -1.5q11 -4 11 -15z" />
<glyph unicode="." horiz-adv-x="117" d="M35 22q0 -5 -6 -13l-1 -2q2 -4 2 -8q-7 -5 -9.5 -10.5t-13.5 -5.5q-10 0 -18.5 7.5t-8.5 17.5q0 17 3 28t24 11q9 0 18.5 -7t9.5 -18z" />
<glyph unicode="/" horiz-adv-x="287" d="M471 749q-37 -98 -91 -185.5t-113 -173.5q-51 -75 -106 -146t-114 -140q-20 -24 -40.5 -47.5t-42.5 -46.5q-3 -4 -9 -4t-11 5t-5 11q0 5 2 7q23 31 47 61.5t47 62.5q50 66 97 131.5t93 134.5q38 57 73 116t71 117q17 28 35.5 56t38.5 53q5 5 10 5q8 0 12.5 -5t5.5 -12z " />
<glyph unicode="0" horiz-adv-x="508" d="M549 543q0 -41 -4.5 -80.5t-12.5 -79.5q-1 -6 -2 -13t-3 -13q0 -2 -0.5 -2.5t-0.5 -1.5v-3q0 -23 -5.5 -51t-14.5 -56.5t-19.5 -55t-20.5 -47.5q-12 -26 -27.5 -52t-35 -48.5t-44 -39t-54.5 -22.5q-5 -1 -11 -1.5t-11 -0.5q-53 0 -89.5 33t-59 81t-32.5 101.5t-10 95.5 q0 70 17 142.5t50.5 137t83.5 117.5t115 86q13 6 26 8.5t27 2.5q45 0 72 -24.5t41.5 -60.5t19.5 -77.5t5 -75.5zM513 522q0 24 -3 60.5t-13 71t-29.5 59.5t-52.5 25q-21 0 -39 -9q-56 -28 -99.5 -77t-73 -108.5t-45 -125t-15.5 -125.5q0 -81 29 -156q6 -16 16.5 -34.5 t25 -34.5t31.5 -26.5t37 -10.5q24 0 45 13.5t38.5 33.5t31.5 43t24 41q17 30 30 62t24 64q5 17 9.5 34t11.5 33q0 1 0.5 1.5t0.5 1.5v2l1 2q3 40 9 80t6 80z" />
<glyph unicode="1" horiz-adv-x="314" d="M365 757q0 -8 -3 -17t-7 -16q-13 -82 -37.5 -161t-47.5 -158q-26 -88 -52.5 -174t-52.5 -174q5 1 16 1t22.5 -3.5t11.5 -18.5q0 -3 -1 -4q-11 -14 -27 -22t-35 -12.5t-38.5 -5.5t-35.5 -1q-14 0 -29.5 0.5t-29.5 4.5q-9 2 -9 12q0 5 3.5 9.5t5.5 7.5q24 5 55.5 10 t54.5 12q20 94 43 186.5t49 185.5q18 64 35 128t41 127q-19 -11 -45 -19.5t-48 -8.5q-2 0 -7.5 8t-5.5 11q0 5 6 9q21 11 41 22.5t40 25.5q8 5 13.5 11t11.5 13q6 6 19.5 16t22.5 10q2 0 11 -6.5t9 -8.5z" />
<glyph unicode="2" horiz-adv-x="594" d="M665 44q0 -6 -3 -10q-28 -44 -76.5 -65t-98.5 -21q-31 0 -68 9.5t-75.5 23t-74.5 28.5t-66 26q-14 5 -29 9.5t-31 4.5q-33 0 -64.5 -21.5t-51.5 -47.5l-1 14q-5 -1 -9.5 -2t-9.5 -1q-8 0 -12.5 3t-10.5 8h1l-5 4l6 8v-4l4 5h-4l162 177q49 53 104 97.5t109 91.5 q54 45 98 93.5t77 111.5q7 13 11 25.5t4 27.5q0 20 -7 38t-19.5 32t-30 22t-37.5 8q-8 0 -13.5 -1t-12.5 -2q-9 -2 -17.5 -2.5t-16.5 -2.5q-46 -9 -87 -34t-70 -61q-7 -9 -12.5 -17.5t-11.5 -17.5q-6 -8 -13 -8q-6 0 -10.5 4.5t-4.5 10.5q0 5 1 7q19 35 47.5 64.5t63 50.5 t73.5 33t79 12q63 0 102 -35t39 -100q0 -37 -17 -73q-24 -51 -57 -93t-71 -79.5t-80 -72t-83 -69.5q-42 -36 -77 -73t-73 -77h7q20 1 40.5 -3.5t40.5 -12.5q28 -11 64.5 -27t75 -30.5t75 -24.5t66.5 -10q42 0 73 14.5t61 43.5q6 6 12 6t10.5 -4.5t4.5 -10.5z" />
<glyph unicode="3" horiz-adv-x="588" d="M588 311q0 -66 -28 -131.5t-75 -117.5t-109 -84.5t-130 -32.5q-56 0 -101.5 22t-82 57t-64 80t-48.5 91q-1 1 -1 5q0 7 5 10.5t11 3.5q7 0 12 -6q8 -14 15.5 -27.5t15.5 -26.5q16 -26 36 -51.5t43 -46.5t50 -37t58 -23q23 -5 43 -5q58 0 111 28t94 73t65.5 101t24.5 113 q0 10 -1 19.5t-2 20.5q-1 9 -2 17.5t-5 16.5q-7 19 -21 32.5t-31.5 21t-37 11t-38.5 3.5q-17 0 -31.5 -3t-28.5 -3q-5 0 -10 6t-5 11q0 9 8 12q8 5 15 7.5t15 6.5q30 14 57.5 31.5t50.5 40.5q10 10 22.5 22t22.5 25.5t17 28.5t7 30q0 38 -22 51t-56 13q-17 0 -34.5 -2.5 t-34.5 -6.5q-40 -9 -75.5 -29t-64.5 -47q-7 -6 -12.5 -12t-11.5 -12q-6 -4 -8 -4q-6 0 -12 5t-6 11q0 4 3 7q22 30 51 55.5t63 43.5t71.5 28t75.5 10q7 0 13.5 -0.5t13.5 -0.5q23 0 41 -9.5t30.5 -25t19 -35.5t6.5 -41q0 -26 -11 -51.5t-28.5 -49t-39 -42.5t-42.5 -32 q33 -6 56.5 -22.5t38.5 -40.5t21.5 -53t6.5 -60z" />
<glyph unicode="4" horiz-adv-x="579" d="M641 411q-35 -49 -81.5 -83.5t-109.5 -39.5q-18 -60 -37.5 -118t-39.5 -118q-10 -28 -19 -56t-20 -56q-4 -7 -12 -7q-5 0 -11 4.5t-6 9.5l2 7q1 6 3 14t4 15t3 9q19 75 39.5 148.5t42.5 148.5q-41 3 -77.5 12t-78.5 9q-21 0 -36.5 -2t-30 -5.5t-29 -9.5t-32.5 -14h-3 q-6 0 -13 5.5t-7 11.5q0 2 1 2q11 29 27.5 58t35.5 57t39 55t38 53q31 45 59 91t54 94q11 20 20.5 39.5t20.5 39.5q3 6 10 6q5 0 11.5 -5t6.5 -10l-1 -4q-2 -5 -3.5 -10t-3.5 -9.5t-2 -5.5q-25 -68 -57.5 -131t-72.5 -123q-23 -34 -44 -68t-45 -66q28 6 56 6q31 0 60.5 -5.5 t58.5 -13.5q13 -4 25.5 -6.5t25.5 -3.5q12 41 28 85.5t36 87.5t44.5 82.5t53.5 71.5q3 4 9 4t12 -4.5t6 -11.5v-3q-9 -23 -19.5 -45t-21.5 -45q-25 -54 -50 -108.5t-44 -111.5q35 6 67.5 22.5t58.5 41.5q6 5 11.5 11.5t11.5 12.5q3 4 8 4q8 0 12.5 -6t5.5 -13z" />
<glyph unicode="5" horiz-adv-x="546" d="M628 773q0 -9 -9 -12q-20 -8 -43 -14t-44 -11q-56 -14 -108 -14q-25 0 -49.5 2.5t-49.5 6.5q0 -5 -6.5 -22t-16.5 -40.5t-23 -50.5t-25 -51t-21.5 -42.5t-13.5 -25.5q38 17 78.5 22.5t81.5 5.5q36 0 68 -15.5t55.5 -41.5t37 -59.5t13.5 -68.5q0 -38 -11 -72t-29.5 -65 t-42.5 -59t-50 -53q-51 -49 -108.5 -90.5t-119.5 -74.5q-1 -1 -5 -1q-7 0 -11 5.5t-4 11.5q0 5 5 10q16 12 32.5 22.5t33.5 22.5q39 29 75.5 60t69.5 66q20 21 40.5 45.5t37 51.5t26.5 56t10 59q0 36 -12.5 61.5t-34.5 42t-50.5 24.5t-61.5 8q-47 0 -90 -13t-84 -36 q-4 -2 -7 -2q-5 0 -12 5.5t-7 10.5q0 6 7.5 26.5t17.5 44t19.5 45t13.5 29.5q17 34 33.5 67.5t33.5 68.5q5 9 11.5 25t12.5 24q2 3 11 8t14 7q4 0 7.5 -1t6.5 -2q29 -6 58 -10t59 -4q20 0 40 2.5t40 5.5q6 1 18.5 3.5t26 5.5t25 5t15.5 2q5 0 10 -6.5t5 -10.5z" />
<glyph unicode="6" horiz-adv-x="572" d="M572 354q0 -12 -2.5 -22t-6.5 -21q-5 -18 -10.5 -36t-13.5 -35q-39 -88 -108 -154.5t-152 -111.5q-2 -2 -4 -2q-6 -4 -10 -4q-5 0 -8 3q-34 29 -57.5 66t-38.5 79t-21.5 86t-6.5 87q0 26 1.5 57t7.5 56q15 64 51 122t83 108.5t102 93t109 75.5q4 2 6 2q7 0 11 -5.5 t4 -11.5t-4 -10l-38 -28t-37 -29q-37 -30 -72 -64t-65 -72t-54 -80t-39 -88q43 37 86.5 52.5t98.5 23.5q8 1 14.5 2t14.5 1q28 0 56 -11t51 -29.5t37.5 -44t14.5 -55.5zM521 354q0 21 -11 38.5t-28 29.5t-37 19t-39 7q-60 0 -117 -22t-100 -64q-3 -27 -3 -54 q0 -79 20.5 -157t63.5 -145l69 66q48 45 90.5 94.5t68.5 109.5q5 12 8.5 24t7.5 24q3 8 5 15t2 15z" />
<glyph unicode="7" horiz-adv-x="499" d="M683 759q0 -5 -2 -7q-19 -25 -38.5 -48.5t-39.5 -46.5q-48 -58 -96 -115t-93 -117q-55 -75 -97 -156.5t-71 -169.5q-6 -20 -12 -38.5t-11 -38.5q-3 -12 -5.5 -24t-5.5 -23q-3 -9 -13 -9q-5 0 -11 4t-6 9q0 6 2 17t4 23t4.5 23t4.5 18q24 107 68 206t107 188 q51 71 105 138.5t118 126.5q-51 -13 -104.5 -14.5t-105.5 -1.5q-44 0 -87 1.5t-87 3.5q-16 1 -31 1t-31 1h-12.5t-12.5 1q-5 1 -8 5.5t-3 9.5t2.5 9t7.5 6q19 4 43 4.5t44 1.5q53 3 105.5 4t105.5 3q42 2 82 6.5t81 10.5q18 2 41 5.5t41 3.5q5 0 11 -8t6 -13z" />
<glyph unicode="8" horiz-adv-x="560" d="M580 697q0 -10 -2 -19t-5 -18q-3 -8 -6 -16.5t-7 -16.5q-9 -20 -23.5 -38t-32.5 -33t-38 -27t-39 -19q54 -49 88 -114.5t34 -139.5q0 -53 -19 -100t-52.5 -84.5t-78 -63t-95.5 -35.5q-17 -4 -34.5 -6t-35.5 -2q-10 0 -20 1t-20 3q-30 6 -53 26.5t-38.5 47.5t-23 58 t-7.5 59q0 55 18 107t49.5 96.5t73.5 80.5t90 61q-28 13 -44 35t-16 54q0 26 13 46q28 42 68.5 68.5t87.5 41.5q1 0 6.5 1.5l11 3t10.5 3t6 1.5q6 0 10.5 -5.5t4.5 -10.5q0 -10 -8 -13q-9 -4 -18.5 -6.5t-18.5 -7.5q-35 -14 -69 -39t-52 -59q-7 -12 -7 -24t5.5 -21t14.5 -15 t20 -9t21 -3q52 0 95.5 30t66.5 75q5 11 11 27t6 29q0 9 -7 15.5t-17 11t-20.5 7.5t-16.5 6q-9 3 -9 13q0 5 4 11t9 6q20 0 39.5 -3.5t35 -12.5t25 -24.5t9.5 -39.5zM495 259q0 68 -31.5 129t-75.5 111l-30 -3q-48 -21 -91 -55t-76 -76.5t-52.5 -93t-19.5 -105.5 q0 -28 6 -51.5t20 -47.5q17 -28 38.5 -39.5t53.5 -11.5q50 0 96.5 18.5t82.5 51t57.5 77t21.5 96.5z" />
<glyph unicode="9" horiz-adv-x="551" d="M572 481q0 -26 -2 -56.5t-7 -55.5q-15 -65 -51 -123t-83 -108t-102.5 -92.5t-109.5 -75.5q-1 -2 -6 -2q-6 0 -10.5 5.5t-4.5 11.5q0 5 5 10l38 28t37 29q37 30 72 64t65 72t54 79.5t39 88.5q-44 -37 -87 -52.5t-98 -23.5q-8 -1 -14.5 -2t-14.5 -1q-28 0 -56.5 11 t-51 29.5t-37 44t-14.5 55.5q0 12 2.5 22t5.5 21q5 18 11 36t14 35q38 87 107.5 154t152.5 112q1 1 2 1t2 1q6 4 10 4q5 0 7 -3q34 -29 58 -66t39 -79t21.5 -86.5t6.5 -87.5zM518 463q0 79 -20 157t-63 145q-17 -17 -35 -33t-35 -33q-47 -45 -89.5 -94.5t-68.5 -109.5 q-5 -12 -8.5 -24t-8.5 -24q-2 -8 -4 -15t-2 -15q0 -21 11 -38.5t28 -29.5t37 -19t39 -7q60 0 117 22t100 64q2 14 2 27v27z" />
<glyph unicode=":" horiz-adv-x="107" d="M117 278q0 -5 -2 -8l-4 -6l-1 -1q2 -6 2 -8q-7 -6 -9.5 -11.5t-13.5 -5.5q-10 0 -19 8t-9 18q0 17 3.5 28t23.5 11q10 0 19.5 -7t9.5 -18zM117 74q0 -5 -2 -8l-4 -6l-1 -2q2 -4 2 -8q-7 -5 -9.5 -10.5t-13.5 -5.5q-10 0 -19 8t-9 18q0 17 3.5 27.5t23.5 10.5 q10 0 19.5 -6.5t9.5 -17.5zM96 251v3q-1 0 -1 -1zM96 46v4l-1 -1q0 -1 0.5 -1.5t0.5 -1.5z" />
<glyph unicode=";" horiz-adv-x="127" d="M123 278q0 -5 -2 -8l-4 -6v-1q0 -2 0.5 -4t0.5 -4q-7 -6 -9.5 -11.5t-13.5 -5.5q-10 0 -18.5 8t-8.5 18q0 17 3 28t24 11q10 0 19 -7t9 -18zM138 59q0 -15 -6.5 -31t-16 -31.5t-20.5 -30t-19 -25.5q-1 0 -2.5 -1t-2.5 -1q-2 0 -10 7t-10 10q5 25 15.5 47t15.5 46 q-6 4 -10.5 9t-4.5 13q0 17 3 28t24 11q8 0 13 -3.5t10 -8.5q10 -9 15.5 -17t5.5 -22zM102 251v3q-1 0 -1 -1z" />
<glyph unicode="&#x3c;" horiz-adv-x="317" d="M317 146q0 -7 -5 -13t-12 -6h-2q-58 23 -108.5 64t-84.5 94q-3 12 -3 24q0 21 8 38t22 33q11 12 23 23.5t23 22.5q6 6 21.5 20t33.5 28t34.5 26.5t23.5 15.5l4 1q6 0 11.5 -5.5t5.5 -11.5q0 -5 -4 -8q-8 -8 -16 -15t-16 -15l-33.5 -33.5t-32.5 -33.5q-6 -6 -16 -17 t-19.5 -23t-16.5 -24t-7 -21q0 -7 12.5 -20.5t30.5 -29.5t40 -33.5t40 -33.5t30.5 -28.5t12.5 -18.5z" />
<glyph unicode="=" horiz-adv-x="595" d="M595 416q0 -4 -3 -8.5t-7 -5.5q-12 -3 -34 -4t-36 -2q-43 -3 -85 -4.5t-85 -2.5q-23 0 -45 -1t-45 -1q-11 0 -26.5 0.5t-31.5 2.5t-31 4.5t-25 7.5q-8 5 -8 15q0 5 2.5 9.5t6.5 6.5q8 3 21.5 5t28 2.5t28.5 1t23 0.5q26 0 51 -1t51 -1q43 -1 85 -2t85 -3q14 -1 35.5 -1 t33.5 -3q5 -1 8 -5.5t3 -9.5zM595 280q0 -11 -9 -15q-9 -3 -22.5 -5t-28.5 -3t-29.5 -1.5t-23.5 -0.5q-25 0 -49.5 1t-49.5 1q-43 0 -85 1t-85 3h-15.5t-19.5 0.5t-19 1t-15 1.5q-5 1 -8 5.5t-3 9.5q0 11 10 15q12 3 34 4t36 2q42 3 84.5 5t85.5 2l46 2t46 1q11 0 26 -0.5 t31 -2.5t30.5 -5t24.5 -7q4 -2 6 -6.5t2 -8.5z" />
<glyph unicode="&#x3e;" horiz-adv-x="310" d="M320 308q0 -6 -0.5 -11.5t-1.5 -11.5q-35 -54 -85.5 -93.5t-111.5 -59.5l-2 -1q-6 0 -11.5 6.5t-5.5 12.5q0 5 12.5 17t29 25.5t32 25t20.5 15.5q19 14 41 33.5t34 39.5q1 1 1 4q0 8 -7 20t-17 24t-20 23t-16 17q-17 17 -33.5 33t-33.5 31q-8 8 -17 15t-17 15q-4 4 -4 8 q0 6 6 11.5t12 5.5h1q1 0 1 -0.5t1 -0.5q7 -4 24 -15.5t35 -25.5t34 -27t22 -19q11 -11 23.5 -22.5t23.5 -23.5q14 -15 22 -32.5t8 -38.5z" />
<glyph unicode="?" horiz-adv-x="436" d="M559 599q0 -44 -22.5 -78t-56 -60.5t-72 -48t-70.5 -40.5q-14 -8 -29 -18t-27 -21q-20 -20 -39 -49t-19 -59q0 -20 16 -37.5t33 -23.5q0 2 -0.5 3t-0.5 3q0 7 5 11.5t12 4.5q9 0 13.5 -10.5t4.5 -18.5q0 -15 -9.5 -23t-23.5 -8q-18 0 -35 8.5t-31 22t-23 31t-11 34.5v11 q0 38 21 76t49 64q26 24 58.5 42.5t65.5 36t64 37.5t54 48t23 64q0 54 -32.5 82.5t-84.5 28.5q-40 0 -79 -16t-69.5 -44t-49 -64.5t-18.5 -78.5q0 -9 2 -18.5t2 -18.5q0 -7 -5 -11t-11 -4t-9 2.5t-5 7.5q-2 4 -3 11t-2 14.5t-1.5 14.5t-0.5 11q0 49 22 92.5t57.5 76.5t81 52 t93.5 19q35 0 65 -11.5t51.5 -32t33.5 -50t12 -65.5zM257 22q0 -5 -6 -13l-1 -2q2 -4 2 -8q-7 -5 -9.5 -10.5t-13.5 -5.5q-10 0 -18.5 7.5t-8.5 17.5q0 17 3 28t24 11q9 0 18.5 -7t9.5 -18zM236 -5v4l-1 -1q0 -1 0.5 -1.5t0.5 -1.5z" />
<glyph unicode="@" horiz-adv-x="684" d="M735 519q0 -52 -14.5 -105t-40.5 -101.5t-62 -90.5t-78 -72q-9 -6 -22.5 -13.5t-24.5 -7.5t-18 6t-10.5 15t-4.5 19t-1 19v9t1 9q-30 -31 -69 -51t-84 -20q-4 0 -10.5 2.5t-10.5 4.5q-20 11 -29.5 32t-9.5 43q0 30 8 59.5t21.5 57t30.5 53.5t36 49q48 59 114 106.5 t138 72.5h3q7 0 11 -5t4 -12t-7 -12q-15 -8 -30.5 -14.5t-29.5 -15.5q-99 -57 -168 -148q-14 -18 -28.5 -40.5t-26 -46.5t-19 -49t-7.5 -49q0 -3 0.5 -9.5t2.5 -12.5t5.5 -11t8.5 -5q25 0 49.5 13.5t46 34t38.5 44.5t28 44q21 38 37.5 77.5t33.5 78.5q8 17 15.5 37t16.5 35 q4 7 13 7q6 0 11.5 -4t5.5 -11v-2q-11 -48 -25 -92.5t-30 -90.5q-4 -11 -6.5 -23.5t-5.5 -23.5q-5 -20 -10.5 -38.5t-11.5 -37.5q-8 -24 -9 -48l2 -2q4 0 11 4.5t14.5 10.5t14 12t9.5 9q29 28 52.5 62.5t40.5 72.5t26 78.5t9 81.5q0 35 -8.5 70.5t-26.5 64.5t-47 47.5 t-69 18.5q-36 0 -70 -11.5t-65.5 -29.5t-60 -41.5t-52.5 -47.5q-31 -31 -57 -68.5t-45 -78.5t-29.5 -85t-10.5 -88q0 -35 8 -73.5t27 -68.5q18 -29 45.5 -49.5t59.5 -34t66.5 -19.5t66.5 -6q60 0 114.5 16t105.5 46q4 3 10 3t10.5 -4.5t4.5 -10.5q0 -7 -6 -13 q-26 -24 -58 -40.5t-67.5 -26t-72 -14t-70.5 -4.5q-68 0 -123 21t-95 59.5t-61.5 93.5t-21.5 123q0 50 12.5 99t34.5 95t51.5 87t64.5 76q28 28 60 54t67 46t73.5 32t79.5 12q51 0 89 -21t62.5 -55.5t36.5 -78.5t12 -90z" />
<glyph unicode="A" horiz-adv-x="660" d="M793 505q0 -4 -3 -7q-21 -23 -48 -39.5t-58 -27t-63 -16t-62 -6.5q-17 -98 -35 -198t-18 -200q0 -29 3.5 -57.5t15 -51t33 -36t57.5 -13.5q6 0 11.5 1t11.5 1q7 0 11 -5t4 -12t-7.5 -11.5t-17 -6.5t-19.5 -3t-15 -1q-43 0 -70.5 17.5t-43.5 46t-22.5 64t-6.5 70.5 q0 48 5.5 98t14 100.5t18.5 100.5t19 97l-42 2t-42 1h-21t-21 -1q-17 -27 -35.5 -53t-37.5 -52q-35 -48 -75 -95.5t-85.5 -88.5t-97.5 -73t-112 -48q-17 -5 -36.5 -8.5t-37.5 -3.5q-6 0 -9.5 5t-3.5 10q0 12 10 14q22 5 42 9.5t41 12.5q52 20 97 52.5t84.5 72t74.5 83.5 t67 88q12 17 23 33t22 33q-39 -8 -68 -22.5t-61 -37.5q-2 -2 -7 -2t-10.5 5.5t-5.5 10.5t3 8q34 38 83.5 59.5t98.5 29.5q20 31 42 65.5t45.5 69t48.5 66t52 56.5q6 4 9 4h2q-1 15 -4.5 30.5t-11 28t-19.5 20.5t-30 8q-24 0 -49.5 -9t-48 -19.5t-38.5 -19t-20 -8.5 q-6 0 -10.5 5.5t-4.5 10.5q0 7 7 12q5 4 12 7.5t13 7.5q33 19 70.5 35t77.5 16q8 0 17 -2.5t16 -5.5q20 -9 33.5 -26t21 -37.5t10.5 -43t3 -42.5q0 -56 -6 -110.5t-15 -109.5q42 5 82.5 15.5t79.5 26.5q11 4 21 8.5t21 9.5h3q6 0 11.5 -5.5t5.5 -12.5zM545 669 q-13 -22 -33 -54.5t-39.5 -64t-35.5 -56.5t-21 -32q8 0 16.5 0.5t17.5 0.5q15 0 30.5 -1t30.5 -1h7q10 52 17.5 103.5t9.5 104.5z" />
<glyph unicode="B" horiz-adv-x="765" d="M816 673q0 -36 -17 -67q-38 -68 -96.5 -118.5t-127.5 -84.5q65 -11 103 -56t38 -111q0 -54 -22 -102.5t-59.5 -85.5t-86.5 -58.5t-103 -21.5t-103 17.5t-94 46.5q-8 5 -16 10.5t-16 11.5q-5 3 -5 9q0 2 2 6q-42 -44 -96 -71.5t-114 -27.5q-6 0 -9.5 5t-3.5 10q0 12 11 14 q20 5 38.5 8.5t38.5 12.5q47 21 83 58t64 82t48.5 94.5t37.5 94.5q15 40 28 80.5t26.5 81t29 80t35.5 77.5q-28 -17 -57 -30t-56 -30q-42 -26 -83 -60.5t-59 -81.5q-4 -10 -6 -19l-4 -18q-3 -9 -13 -9q-4 0 -10.5 3.5t-6.5 7.5q0 41 17 77t45 67t64.5 57t75.5 48t78 39.5 t71 31.5q2 1 3.5 2t3.5 1q6 0 12 -4.5t6 -11.5q0 -1 -5 -14t-12 -28.5t-13 -29.5t-7 -18q22 20 50.5 40.5t60 37.5t64 28t63.5 11q44 0 74 -23.5t30 -68.5zM766 673q0 26 -17.5 35t-40.5 9q-33 0 -68.5 -13t-69.5 -33t-65 -43.5t-55 -44.5q-23 -63 -45 -126t-46 -126 q-24 -62 -53 -121.5t-70 -112.5q-6 -9 -15 -18q2 1 6 1q2 0 6 -2q47 -27 95.5 -47t103.5 -20q44 0 85.5 17t73.5 47t51.5 69.5t19.5 84.5q0 41 -15.5 66.5t-41 40.5t-58 21t-66.5 7q-2 -1 -6 -2.5t-9 -3t-9 -2.5t-5 -1q-8 0 -12 5.5t-4 12.5q0 9 10 13q3 8 8 8.5t10 2.5 q10 4 23.5 13t23.5 14q29 17 58.5 35.5t58.5 38.5q18 13 41.5 33t45 44t36.5 49.5t15 48.5z" />
<glyph unicode="C" horiz-adv-x="581" d="M663 728q-1 -6 -5.5 -11t-11.5 -5q-9 0 -18 1t-19 1q-74 0 -145 -28t-130.5 -76t-103.5 -112t-65 -136q-7 -23 -11.5 -47t-7.5 -47q-4 -27 -5 -55t3 -55t12.5 -52t24.5 -46q6 -8 13 -15.5t15 -12.5q15 -9 38 -13t42 -4q54 0 108 23t94 64q11 11 19 21.5t17 22.5q5 7 13 7 q6 0 10.5 -4t3.5 -11q0 -1 -2 -5q-21 -36 -52 -65.5t-67 -50t-75.5 -32t-79.5 -11.5q-11 0 -24 1t-26 3.5t-25 6t-21 8.5q-8 5 -16 13l-15 15q-45 50 -54 116.5t0 135.5q3 24 8 48t11 48q19 74 63 143.5t105.5 123t135 86t150.5 32.5q18 0 43 -2.5t41 -8.5q10 -4 9 -15z" />
<glyph unicode="D" horiz-adv-x="853" d="M889 511q0 -58 -17.5 -119.5t-49 -120.5t-74.5 -112t-95 -93t-111 -63.5t-121 -23.5q-61 0 -115 25.5t-98 66.5q-40 -42 -93.5 -68.5t-111.5 -26.5q-6 0 -9.5 5t-3.5 10q0 12 11 15q20 4 38.5 7.5t38.5 12.5q46 21 81.5 58t63 82t47.5 94.5t37 94.5q15 40 27 80.5t25 81 t28 80t35 77.5q-28 -16 -57 -29.5t-56 -30.5q-40 -25 -79 -57.5t-59 -77.5q-5 -11 -7 -22t-5 -22q-1 -4 -5 -6.5t-8 -2.5q-9 0 -12.5 5t-3.5 13q0 40 17 75t45.5 65t64.5 56t74.5 47.5t76 39t68.5 30.5q2 1 3.5 2t4.5 1q6 0 11.5 -4.5t5.5 -11.5q0 -1 -4.5 -12t-9.5 -24.5 t-10.5 -26t-6.5 -16.5q41 44 91 71t111 27h20q26 -4 51 -15t47 -27.5t40 -37t30 -43.5q15 -30 22 -63t7 -66zM837 501q0 38 -11.5 75.5t-33.5 67t-54 47.5t-74 18q-30 0 -58 -10.5t-53 -27t-47 -37t-40 -41.5q-8 -10 -20.5 -23t-18.5 -24q-2 -5 -5 -13.5t-6 -18t-6 -18.5 l-5 -15q-12 -36 -24.5 -72t-25.5 -72q-25 -66 -54.5 -127t-72.5 -116q38 -33 85 -54.5t98 -21.5q53 0 102 18.5t93 50.5t81 74.5t66 90.5t49 98t30 98q2 14 3.5 26.5t1.5 26.5z" />
<glyph unicode="E" d="M926 824q0 -6 -3 -9q-32 -32 -78.5 -51.5t-90.5 -27.5q-43 -8 -86 -11t-86 -4.5t-86 -4t-85 -11.5q-5 -81 -25.5 -159t-46.5 -154q28 0 55.5 -4t55.5 -4q25 0 49.5 2.5t48.5 8.5q3 1 9.5 3l13 4t12 4t6.5 2q5 0 11 -7t6 -11q0 -6 -5 -9q-38 -24 -86 -35t-92 -11 q-17 0 -33 2t-33 2q-21 0 -38 -4q-26 -74 -58 -145t-68 -141q33 0 65.5 -5t64.5 -10.5t64.5 -10.5t65.5 -5q15 0 30 1t30 4q49 10 83.5 35t69.5 58q4 4 8 4q6 0 11.5 -5.5t5.5 -10.5q0 -3 -2 -7q-45 -63 -109 -95t-141 -32q-31 0 -61 3.5t-60 8t-60 8.5t-61 4h-17t-17 -1 l-7.5 -15t-12.5 -9q-7 0 -12.5 4t-5.5 11q0 3 2 5q-17 -3 -31 -6.5t-26.5 -8t-25.5 -10t-29 -11.5h-3q-7 0 -12 5.5t-5 12.5q0 5 3 8q29 32 70.5 47.5t83.5 20.5q29 67 56 134.5t52 136.5q-2 -1 -9 -4t-14 -6.5t-13 -6t-7 -2.5q-7 0 -13 6.5t-6 12.5v2q0 1 1 1 q12 23 35.5 38.5t47.5 23.5q26 78 45 157t46 156q-38 -11 -72.5 -30.5t-60.5 -49.5q-8 -8 -13 -17t-12 -17q-3 -5 -10 -5q-5 0 -11 4t-6 11q0 3 1 4q27 54 69.5 87.5t93.5 52t107.5 26t110.5 10.5q90 4 171 17.5t164 50.5q2 1 5 1q7 0 11.5 -5.5t4.5 -11.5z" />
<glyph unicode="F" horiz-adv-x="556" d="M883 824q0 -6 -4 -9q-32 -32 -78 -51.5t-91 -27.5q-42 -8 -85 -11t-86.5 -4.5t-86.5 -4t-85 -11.5q-5 -81 -25 -159t-46 -154q28 0 55.5 -4t55.5 -4q25 0 49.5 2.5t48.5 8.5q3 1 9.5 3l13 4t12 4t6.5 2q5 0 11 -7t6 -11q0 -6 -5 -9q-38 -24 -86 -35t-92 -11 q-17 0 -33.5 2t-33.5 2q-9 0 -18.5 -1t-18.5 -3q-24 -66 -52 -131t-60 -128q-13 -24 -26.5 -51.5t-27.5 -50.5q-5 -5 -11 -5t-11.5 4t-5.5 11v3q11 26 23.5 53t23.5 53q46 111 87 225q-2 -1 -8.5 -4t-14 -6.5t-13.5 -6t-7 -2.5q-6 0 -12 6.5t-6 12.5l1 3q12 23 35 38.5 t48 23.5q26 78 44.5 157t45.5 156q-38 -11 -72.5 -30.5t-60.5 -50.5q-8 -8 -13 -16.5t-12 -16.5q-3 -5 -9 -5t-11.5 4t-5.5 11q0 3 1 4q27 54 69.5 87.5t93.5 52t107.5 26t110.5 10.5q90 4 171 17.5t164 50.5q2 1 5 1q6 0 11 -5.5t5 -11.5z" />
<glyph unicode="G" horiz-adv-x="645" d="M727 559q0 -2 -1 -4.5t-2 -4.5q-36 -52 -67.5 -102.5t-59.5 -102.5t-52 -106.5t-44 -114.5q-20 -58 -33.5 -117.5t-26.5 -119.5t-28 -119.5t-37 -117.5q-20 -51 -46 -98t-61.5 -82t-82.5 -56t-108 -21q-52 0 -97 16.5t-78.5 47t-52.5 73.5t-19 96q0 54 16.5 109 t45.5 105.5t68.5 92t86.5 67.5q6 2 8 2q6 0 10.5 -4.5t4.5 -10.5q0 -8 -8 -13q-11 -8 -21 -15t-21 -15q-44 -37 -75.5 -85.5t-50.5 -102.5q-10 -29 -16 -59.5t-6 -62.5q0 -46 15 -82t42 -60.5t64.5 -37.5t82.5 -13q23 0 45.5 4t43.5 14q45 19 79 60.5t60 95.5t45 117 t33.5 125t25.5 119t22 100q-15 -18 -32.5 -36.5t-38 -33t-43 -24t-47.5 -9.5q-6 0 -12 0.5t-11 1.5q-41 9 -71 31.5t-50 53.5t-29.5 68.5t-9.5 76.5v8.5t1 8.5q5 100 36 192t88 175q11 15 22.5 30.5t24.5 29.5q20 21 45.5 37t53.5 27.5t57 19t57 12.5q57 9 112 14.5 t111 18.5h2q15 0 15 -16q0 -10 -10 -13q-14 -6 -31 -9t-32 -6q-40 -8 -80.5 -12.5t-80.5 -12.5q-54 -11 -102 -30t-85 -61q-35 -39 -63.5 -88t-48.5 -103t-30.5 -110t-10.5 -109q0 -38 11 -76.5t40 -65.5q17 -16 38 -26.5t44 -10.5q24 0 50 17t51.5 44.5t50 61.5t45.5 67.5 t38 63.5t28 49q17 29 36 61t40 63t43.5 60t45.5 53q7 5 12 5q16 0 16 -15z" />
<glyph unicode="H" horiz-adv-x="924" d="M976 0q0 -4 -5 -9q-13 -12 -31.5 -26t-39.5 -25.5t-42 -19.5t-39 -8q-32 0 -50 16t-27.5 40t-12 52t-2.5 51q0 42 6.5 90t17 96.5t23.5 95.5t25 88q-32 -8 -64.5 -11.5t-65 -5t-65 -1.5t-65.5 -1q-69 -3 -135 -27q-23 -78 -51 -155.5t-74 -146.5q-18 -27 -42.5 -52 t-54 -43.5t-62 -29.5t-66.5 -11q-6 0 -9.5 5.5t-3.5 10.5q0 12 11 14q20 5 38 9t38 13q45 22 78.5 60.5t58 85t41.5 96.5t30 95l7 23l-10 -5l-16 -8l-15 -7.5t-8 -3.5q-7 0 -12.5 5.5t-5.5 11.5q0 7 10.5 18.5t25 22.5t28.5 20t21 12q15 60 31 119.5t42 116.5 q-27 -17 -55.5 -31.5t-55.5 -32.5q-19 -13 -38.5 -28t-36.5 -32t-31 -37t-22 -42q-5 -14 -5.5 -23t-3.5 -21q-2 -5 -6 -7.5t-9 -2.5t-9.5 3t-5.5 8v-1q0 4 -0.5 7.5t-0.5 7.5q0 58 34 106.5t84 87.5t107 69.5t102 52.5l4 2t4 1q7 0 12.5 -5t5.5 -12v-2q-8 -23 -15.5 -44.5 t-15.5 -44.5q-15 -48 -28 -96t-27 -96q33 9 66.5 12t67.5 3q33 0 66 -1.5t66 -1.5q31 0 61.5 2t60.5 9q16 50 34 98.5t41 96.5q8 16 16 33t18 31q4 6 12 6q6 0 11.5 -4t5.5 -12q0 -2 -5.5 -19.5t-13.5 -43t-18 -56t-19 -57.5l-16 -48t-9 -28q0 -1 0.5 -2t0.5 -2q0 -6 -5 -9 q-15 -47 -31 -99.5t-29 -106.5t-21 -107.5t-8 -102.5q0 -12 1 -29t6 -32.5t14.5 -26t27.5 -10.5q17 0 39 10.5t43 22.5t36.5 22.5t18.5 10.5q6 0 11 -5.5t5 -11.5z" />
<glyph unicode="I" horiz-adv-x="528" d="M753 757q0 -8 -6 -11q-31 -15 -67.5 -22.5t-74.5 -10.5t-75.5 -2.5t-71.5 0.5q-6 -78 -29 -167t-56 -178t-71.5 -173.5t-75.5 -153.5q30 -2 59.5 -3t58.5 -1q25 0 49.5 1.5t48.5 5.5q7 2 13 3t13 3q5 1 8.5 3t8.5 2t10.5 -6.5t5.5 -11.5q0 -8 -6 -11q-32 -15 -69.5 -22.5 t-76.5 -10t-77.5 -2t-73.5 0.5q-3 -3 -7 -3t-8 3h-16q-53 -1 -102.5 -14.5t-97.5 -33.5q-12 -5 -24 -11.5t-25 -11.5h-3q-6 0 -11.5 5.5t-5.5 11.5q0 4 2 8q22 27 52 45.5t64 30t69.5 16.5t68.5 5q9 0 18 -0.5t18 -0.5q38 88 73.5 177t66.5 181q26 78 45 156.5t45 156.5h-1 q-53 0 -102.5 -13.5t-97.5 -34.5q-12 -5 -24.5 -11t-24.5 -11l-3 -1q-6 0 -12 6t-6 12q0 4 3 7q23 27 53.5 46t65 30t70.5 16t70 5q46 0 91 -3t91 -3q25 0 50 1.5t50 5.5q7 2 13.5 3t12.5 3q5 2 9 3.5t9 1.5t10.5 -6t5.5 -11z" />
<glyph unicode="J" horiz-adv-x="387" d="M531 751q0 -7 -9 -14.5t-14 -12.5q-10 -11 -19 -23.5t-18 -25.5q-60 -85 -103.5 -178.5t-78.5 -190.5q-21 -59 -36.5 -120t-30 -122.5t-30.5 -122.5t-38 -120q-21 -57 -50 -106.5t-68 -85.5t-90.5 -56.5t-117.5 -20.5q-48 0 -94.5 14.5t-84.5 44.5q-37 29 -53 68t-16 84 q0 56 20.5 112t55 106.5t79 91t93.5 64.5q6 2 8 2q6 0 10 -4.5t4 -10.5q0 -9 -8 -14q-11 -6 -21 -12t-20 -13q-50 -35 -87 -83t-62 -103q-14 -31 -22 -63.5t-8 -65.5q0 -37 12.5 -69t41.5 -55q32 -24 72 -35t78 -11q58 0 102.5 18.5t77.5 51t57.5 76t42.5 93.5 q22 59 37.5 120t29 122.5t28.5 122.5t36 121q32 90 74.5 175.5t99.5 161.5q-18 -9 -36.5 -18t-35.5 -20q-43 -26 -84 -61t-59 -83q-4 -9 -5.5 -17.5t-3.5 -17.5q-1 -4 -5 -6.5t-8 -2.5t-10.5 3.5t-6.5 8.5q0 37 13.5 69t35 59.5t49.5 50t57 40.5q47 29 96.5 56t101.5 46h3 q5 0 11.5 -6t6.5 -12z" />
<glyph unicode="K" horiz-adv-x="748" d="M820 748q0 -3 -5 -16t-6 -17q-22 -54 -64.5 -93t-91.5 -67q-59 -33 -121.5 -57t-122.5 -53q33 -26 54 -60.5t35 -74.5t21.5 -81.5t18.5 -82.5q6 -23 12 -46.5t17 -46.5q12 -27 30.5 -43.5t50.5 -16.5q22 0 46.5 8.5t46 19t36.5 19.5t18 9q6 0 11 -5t5 -12t-5 -9 q-17 -14 -36.5 -25.5t-38.5 -21.5q-21 -11 -44 -18t-47 -7q-38 0 -63.5 17.5t-42 44t-27 58.5t-18.5 62q-11 39 -20.5 78.5t-22.5 78.5q-10 32 -23.5 62.5t-33.5 58.5q-26 -81 -56.5 -162t-80.5 -150q-20 -27 -45.5 -50.5t-54.5 -41t-62 -27t-67 -9.5q-5 0 -9 5t-4 10 q0 12 11 14q21 5 39 8.5t38 11.5q46 21 80 58t59.5 82.5t44.5 95t34 93.5q13 40 24 81t23 81.5t25.5 80.5t32.5 78q-28 -17 -56.5 -30.5t-56.5 -30.5q-40 -26 -78.5 -59.5t-55.5 -80.5q-4 -10 -5 -19t-4 -20q-1 -4 -5 -6.5t-9 -2.5q-11 0 -13.5 6.5t-2.5 14.5 q0 39 16.5 73.5t44 64.5t62.5 55.5t72.5 47t74.5 38.5t67 31q2 1 3.5 1.5t3.5 0.5q7 0 12.5 -4.5t5.5 -11.5v-3q-8 -20 -15.5 -39.5t-14.5 -39.5q-15 -42 -28 -84.5t-26 -85.5q52 31 107 56t107 57q37 22 66 50t57 60q11 12 21 26t21 25q3 4 9 4q4 0 11.5 -5.5t7.5 -10.5z " />
<glyph unicode="L" horiz-adv-x="778" d="M830 58q0 -4 -4 -8q-26 -28 -58.5 -46t-68 -29t-73.5 -15.5t-74 -4.5q-32 0 -64 2.5t-64 6.5q-57 8 -113.5 13t-114.5 5q-23 0 -46 -1t-46 -3q-3 -3 -7 -6t-9 -3q-6 0 -11 5t-5 12q0 3 1 5q0 1 -0.5 1.5t-0.5 2.5q0 7 5 9.5t10 4.5q31 41 57.5 86t49 91.5t43 94 t40.5 95.5q27 62 58.5 123.5t72.5 115.5t94 95.5t122 62.5h2q5 0 9.5 -6t4.5 -11q0 -8 -7 -12q-20 -10 -37 -17t-37 -21q-44 -30 -79 -70.5t-63 -86.5t-50.5 -95.5t-42.5 -97.5q-18 -42 -34.5 -85t-35.5 -85t-42.5 -81.5t-53.5 -74.5q37 6 76 6q43 0 86.5 -5.5t86.5 -11.5 t86 -11.5t87 -5.5q50 0 98 9t92 35q10 6 18.5 12.5t18.5 13.5q3 3 7 3q5 0 10.5 -6t5.5 -11z" />
<glyph unicode="M" horiz-adv-x="956" d="M1018 13q0 -5 -5 -10q-12 -11 -31 -24t-40 -24.5t-42 -19.5t-37 -8q-20 0 -35.5 8t-27.5 21.5t-19 30.5t-9 35q-2 19 -4 37.5t-2 37.5q0 48 10 111.5t25 130t33 129t35 108.5q-23 -37 -46.5 -73t-47.5 -71q-21 -32 -43 -64t-46.5 -63t-52 -58t-59.5 -48q-2 -1 -6 -1 q-5 0 -10 4t-7 9l-1 -1q-1 0 -1 1t-1 2q-10 29 -14.5 60t-6.5 62q-2 30 -3.5 60t-3.5 60q-4 54 -7.5 108.5t-8.5 109.5q-34 -85 -63 -171t-62 -172q-24 -62 -53 -121t-69 -112q-21 -27 -47 -50t-56 -40t-63.5 -26.5t-67.5 -9.5q-5 0 -9 5t-4 10q0 12 11 14q21 5 39.5 8.5 t38.5 11.5q47 21 82.5 58t63.5 82t48.5 94t37.5 94q15 40 28 81t26.5 81.5t29 80.5t36.5 78q-28 -17 -57 -30.5t-57 -30.5q-21 -12 -42 -26.5t-40 -32t-34.5 -37.5t-24.5 -43q-4 -10 -6 -19.5t-5 -19.5q-1 -5 -5 -7.5t-8 -2.5t-10 4t-6 8q0 37 13 69t35 59.5t49.5 50.5 t56.5 41q46 29 97 56.5t102 44.5h2q10 0 15 -8q3 -2 4 -6t-1 -7q17 -67 26 -135.5t16 -137.5q5 -50 9.5 -98.5t1.5 -98.5q38 50 77 98.5t74 99.5q39 56 77 110.5t78 108.5q14 18 28.5 37t29.5 36q4 4 9 4q6 0 13 -6.5t7 -12.5v-2q-31 -112 -68 -220t-63 -222 q-12 -54 -21.5 -107.5t-9.5 -107.5q0 -14 1 -33t6 -36.5t15.5 -29.5t30.5 -12q18 0 40 9.5t42.5 21.5t35.5 21.5t18 9.5q6 0 11 -5t5 -11z" />
<glyph unicode="N" horiz-adv-x="764" d="M1077 800q0 -12 -12 -15q-22 -5 -41 -8.5t-41 -12.5q-50 -22 -87.5 -61.5t-67 -87.5t-51 -100t-39.5 -100t-36 -105.5t-38.5 -115t-46 -110.5t-59.5 -92q-3 -3 -7.5 -4t-9.5 -1q-9 0 -12 8q-15 38 -22.5 83.5t-12.5 86.5q-15 130 -24.5 259.5t-33.5 257.5 q-35 -88 -65 -176t-64 -176q-24 -62 -52.5 -121t-69.5 -112q-21 -27 -47 -50t-56 -40t-63 -26.5t-68 -9.5q-5 0 -8.5 5t-3.5 10q0 12 11 14q20 5 38.5 8.5t38.5 11.5q47 21 82.5 58t63.5 82t48.5 94t37.5 94q15 40 28.5 81t27 81.5t29 80.5t35.5 78q-28 -17 -57 -30.5 t-57 -30.5q-40 -24 -79.5 -57t-59.5 -78q-5 -11 -7 -21.5t-5 -21.5q-3 -10 -14 -10q-3 0 -9.5 4t-6.5 8q0 37 13 69t35 59.5t50 50.5t57 41q47 29 96.5 56t101.5 45h2q8 0 14.5 -6t4.5 -14q29 -97 44 -195t27 -198q8 -68 16 -135.5t12 -136.5q37 91 67.5 182.5t65.5 182.5 q26 66 56 128.5t72 118.5q22 28 49.5 52.5t59 43t66.5 29t71 10.5q5 0 9 -5t4 -10z" />
<glyph unicode="O" d="M742 566q0 -60 -15 -116t-40 -108t-58.5 -101t-69.5 -94q-24 -30 -56.5 -61t-69.5 -57t-77.5 -42.5t-80.5 -16.5q-33 0 -64 10.5t-56 29.5t-41.5 46.5t-19.5 62.5q-1 9 -1.5 18.5t-0.5 18.5q0 51 11 99t29.5 94t43 89t51.5 85q18 26 35.5 53t37.5 53q6 6 12 6t10.5 -4.5 t4.5 -10.5q0 -3 -2 -9q-32 -50 -65.5 -102.5t-61 -108t-45 -114t-17.5 -121.5v-19.5t2 -20.5q3 -26 15 -45.5t30 -33.5t41 -21t47 -7q35 0 70.5 15.5t68 39t61 52t49.5 54.5q32 40 62 85.5t53.5 94.5t37.5 101t14 105q0 34 -9 64.5t-27.5 53t-46 35.5t-64.5 13 q-44 0 -82.5 -15t-75.5 -37q-4 -2 -8 -2q-7 0 -11.5 4.5t-4.5 10.5t6 12q38 32 88.5 53t99.5 21q46 0 81.5 -17t59.5 -46t36.5 -67.5t12.5 -81.5z" />
<glyph unicode="P" horiz-adv-x="695" d="M777 577q0 -54 -19.5 -102t-52.5 -89.5t-76.5 -74.5t-93 -56t-101.5 -35.5t-101 -12.5q-5 0 -12 -0.5t-15 0.5t-15 2.5t-10 6.5q-13 -26 -27.5 -51.5t-32.5 -48.5q-40 -54 -100 -89.5t-129 -35.5q-5 0 -8.5 5t-3.5 10q0 12 11 14q20 5 38 8.5t38 11.5q46 20 80.5 56.5 t60.5 81.5t45 93.5t34 92.5q13 40 24.5 81t23.5 81.5t26 80.5t33 78q-28 -17 -57 -30.5t-57 -30.5q-20 -12 -40.5 -26.5t-38.5 -31.5t-32.5 -36.5t-23.5 -42.5q-4 -10 -5.5 -19.5t-3.5 -20.5q-2 -5 -6 -7.5t-8 -2.5q-11 0 -13.5 6.5t-2.5 14.5q0 34 13 64.5t33.5 57t47 48.5 t53.5 39q45 29 95 56.5t100 44.5h2q6 0 12.5 -5t6.5 -12q0 -1 -3.5 -11t-8 -22t-9 -23t-5.5 -14q18 17 40 32.5t46 27.5t49.5 19t51.5 7q40 0 68 -17t45.5 -44t25.5 -61t8 -68zM726 576q0 22 -4.5 46.5t-15.5 44t-29.5 32.5t-45.5 13q-16 0 -32 -4t-31 -10 q-43 -17 -80 -46.5t-66 -65.5q-5 -6 -10.5 -13.5t-9.5 -14.5q-5 -11 -10.5 -31.5t-9.5 -33.5q-11 -36 -23 -72.5t-24 -72.5q-10 -28 -20.5 -55.5t-22.5 -54.5q5 2 10 1.5t10 -0.5q66 0 138.5 25.5t134 70.5t101.5 106.5t40 134.5z" />
<glyph unicode="Q" horiz-adv-x="691" d="M737 566q0 -60 -15 -116t-40.5 -108.5t-58.5 -101t-69 -93.5q-32 -41 -70.5 -76t-83.5 -61q18 -22 39 -31t49 -9q27 0 59 8q2 1 11.5 4t10.5 3q5 0 10.5 -6.5t5.5 -11.5q0 -8 -15 -15t-34 -12t-37.5 -7.5t-25.5 -2.5q-37 0 -66 15t-52 44q-21 -8 -42 -14t-44 -6 q-33 0 -64 10.5t-55.5 30t-41 47.5t-19.5 62q-2 9 -2 18v19q0 51 11 99t29.5 94t43 89t51.5 85q17 25 36 54t37 52q6 6 12 6t10.5 -4.5t4.5 -10.5q0 -3 -2 -9q-25 -39 -49 -76t-46 -74.5t-41 -77.5t-33 -85q51 -4 84.5 -29t57 -61.5t41.5 -78t38 -78.5q42 24 77.5 57 t64.5 71q32 40 62.5 85.5t54 94.5t37.5 101t14 105q0 34 -9 64.5t-27.5 53t-46 35.5t-64.5 13q-44 0 -82.5 -15.5t-75.5 -36.5q-4 -2 -8 -2q-7 0 -11.5 4.5t-4.5 10.5t6 12q18 16 40.5 29.5t47.5 23.5t50.5 15.5t49.5 5.5q46 0 81.5 -17t59.5 -46t36.5 -67.5t12.5 -81.5z M327 30q-20 33 -36 68t-35.5 66t-46.5 56.5t-68 40.5q-5 -23 -7.5 -47t-2.5 -47v-21t2 -21q3 -26 15 -45.5t30 -33.5t41 -21t47 -7q17 0 31 3.5t30 8.5z" />
<glyph unicode="R" horiz-adv-x="755" d="M826 50q0 -7 -5 -9q-15 -12 -35.5 -24.5t-38.5 -20.5q-20 -11 -42.5 -17.5t-46.5 -6.5q-45 0 -71.5 25t-43 64.5t-27.5 88t-26.5 95.5t-39 87t-64.5 62q-28 -74 -60 -145t-80 -134q-20 -27 -46 -50t-56 -40.5t-63.5 -27t-67.5 -9.5q-6 0 -9.5 5t-3.5 10q0 13 11 15 q21 4 39.5 7.5t38.5 12.5q46 21 82 58t63.5 82t48.5 94t38 94q23 59 41 118.5t41 118.5q0 6 3 9q8 20 16.5 38t18.5 36q-28 -16 -57 -29.5t-57 -30.5q-42 -26 -82.5 -60t-59.5 -82q-4 -9 -5.5 -18t-4.5 -19q-1 -4 -5 -6.5t-8 -2.5t-10.5 3.5t-6.5 8.5q0 37 13.5 69t35 59.5 t49.5 50t57 40.5q44 28 96.5 56.5t101.5 45.5h3q6 0 12.5 -5.5t6.5 -11.5q0 -2 -4 -11t-8.5 -20.5t-9 -22t-5.5 -13.5q37 27 84 48.5t95 21.5q21 0 41.5 -6.5t36 -18.5t25 -30t9.5 -42q0 -22 -7.5 -43.5t-19.5 -39.5q-50 -75 -128 -122.5t-168 -56.5q27 -21 43.5 -49t28 -59 t18.5 -64t15 -64q6 -23 11.5 -45.5t14.5 -44.5q11 -26 28 -42t47 -16q21 0 45 8.5t45 18.5t35.5 18.5t17.5 8.5q7 0 11.5 -5.5t4.5 -12.5zM734 660q0 14 -6.5 23.5t-17 15.5t-22.5 8.5t-24 2.5q-25 0 -51.5 -8t-52 -20t-49 -27t-42.5 -30q-18 -48 -34.5 -95t-33.5 -95 q45 7 89.5 19.5t85.5 33t76.5 49.5t61.5 68q8 12 14 26t6 29z" />
<glyph unicode="S" horiz-adv-x="623" d="M725 769q0 -9 -8 -14q-21 -13 -49.5 -20.5t-58.5 -12t-59.5 -7t-54.5 -4.5q-42 -3 -87 -10t-81 -30l-9 -6t-8 -6q-10 -11 -15 -27t-5 -30q0 -31 16 -54t39 -42q21 -17 41.5 -34t42.5 -34q23 -18 47 -39t44 -45t32.5 -52t12.5 -60q0 -42 -20 -78.5t-46 -66.5 q-45 -51 -106.5 -81t-130.5 -30q-48 0 -95 15.5t-84 44.5t-60 70.5t-23 94.5q0 45 18.5 94.5t47.5 84.5q6 6 12 6t10.5 -4.5t4.5 -10.5q0 -5 -3 -9q-23 -35 -38.5 -73t-15.5 -82q0 -45 19.5 -79.5t51 -58.5t71.5 -36t81 -12q63 0 112 26.5t91 71.5q22 25 37 52t15 62 q0 26 -10 46t-28 39q-19 19 -38.5 35.5t-40.5 33.5q-20 15 -45.5 34t-48.5 40.5t-41 46t-23 50.5q-2 8 -2.5 16t-0.5 16q0 33 11 59t30.5 44.5t46 30.5t57.5 18q28 5 56 5.5t56 2.5q54 3 107 5t105 19q1 0 2 0.5t3 0.5q6 0 10.5 -5t4.5 -11z" />
<glyph unicode="T" horiz-adv-x="582" d="M925 842q0 -6 -3 -9q-39 -37 -88.5 -57.5t-103 -31t-108 -13.5t-105.5 -5q-6 -94 -31 -185t-56 -180q-26 -77 -58 -150.5t-68 -145.5q-14 -28 -29.5 -59.5t-31.5 -57.5q-3 -6 -10 -6q-6 0 -11.5 4.5t-5.5 11.5v3q14 33 29 66t29 67q29 70 56.5 140.5t51.5 142.5 q29 90 50.5 182t54.5 180q1 1 1.5 2t1.5 2q-44 -7 -90.5 -14.5t-91.5 -21t-86 -34t-74 -52.5q-14 -14 -23.5 -28t-20.5 -29q-3 -6 -10 -6q-6 0 -11.5 4t-5.5 11q0 4 1 5q33 64 81.5 102t106.5 58t122 27.5t128 11.5q52 3 101 7.5t97 13t95.5 23t94.5 37.5q2 1 5 1 q7 0 11.5 -5.5t4.5 -11.5z" />
<glyph unicode="U" horiz-adv-x="769" d="M815 748q-17 -47 -39.5 -101t-46 -112t-46 -119t-40 -120t-28.5 -115.5t-11 -105.5q0 -20 9 -39t32 -19q16 0 38 9t42.5 20.5t36 20.5t18.5 9q6 0 10.5 -5.5t4.5 -11.5t-5 -9q-23 -20 -57 -40t-64 -28q-13 -4 -29 -4q-26 0 -42 11.5t-25 29.5t-12 39.5t-3 42.5 q0 15 1.5 30t3.5 30q-18 -27 -44.5 -60t-58 -61.5t-67 -47.5t-70.5 -19q-30 0 -48.5 12.5t-28.5 32t-13.5 43.5t-3.5 48q0 32 4.5 62.5t11.5 60.5q26 118 64 231t95 220q-29 -17 -58.5 -31t-58.5 -31q-39 -24 -77.5 -56t-56.5 -76q-5 -10 -6.5 -19t-4.5 -19q-2 -9 -13 -9 q-5 0 -10.5 4t-5.5 10q0 35 12.5 65.5t33.5 56.5t47.5 47.5t53.5 38.5q45 28 91.5 52.5t95.5 42.5q2 3 5.5 5t6.5 2q6 0 11.5 -4.5t5.5 -11.5q0 -3 -1 -4q-15 -41 -35.5 -93t-42.5 -109.5t-43 -117.5t-37.5 -118t-27 -110.5t-10.5 -94.5q0 -14 0.5 -28.5t5 -26.5t14 -20 t27.5 -8q24 0 48 13q54 28 98 75.5t79 97.5q7 9 15 20t13 21q3 7 4.5 16t3.5 17q5 16 9 31.5t9 32.5q30 95 64.5 187.5t85.5 178.5q8 13 15.5 26t16.5 25q3 5 10 5q8 0 12.5 -5t5.5 -13z" />
<glyph unicode="V" horiz-adv-x="714" d="M827 676q0 -47 -25.5 -109t-66.5 -129.5t-92 -136.5t-102.5 -130.5t-98.5 -111.5t-79 -78q-4 -4 -11 -4q-6 0 -11 2t-7 9q-4 17 -4.5 39.5t-0.5 39.5q0 68 9.5 134.5t17.5 133.5q8 71 15 141t7 142q0 42 -3 84q-35 -29 -74.5 -46.5t-77.5 -40.5t-75.5 -54.5t-55.5 -73.5 q-5 -10 -6.5 -19t-4.5 -20q-4 -9 -13 -9q-8 0 -12.5 5t-4.5 12q0 55 34.5 101.5t84.5 83t106.5 64t100.5 45.5q6 3 11 3q6 0 10.5 -6t4.5 -12q0 -4 -3 -7q12 -46 16 -93t4 -95q0 -53 -4 -105.5t-9 -105.5q-8 -69 -14 -138t-17 -138q24 33 64 81t85.5 104t92 117t84 120.5 t61 113t23.5 95.5q0 24 -12 44q-13 20 -36 29t-45 13q-7 1 -14.5 1t-14.5 2q-12 2 -12 14q0 16 15 16q31 0 60 -6.5t51.5 -21t35.5 -39t13 -60.5z" />
<glyph unicode="W" horiz-adv-x="1135" d="M1288 725q0 -50 -26.5 -116t-69.5 -138.5t-97 -146.5t-108 -140t-103.5 -119t-83.5 -84q-4 -4 -9 -4q-13 0 -17 13l-3 3q-14 37 -18.5 74t-4.5 76q0 55 2.5 109.5t2.5 110.5q0 35 -2 69t-7 69q-39 -71 -80.5 -139.5t-86.5 -136.5q-41 -62 -84.5 -124t-101.5 -110 q0 -6 -5.5 -10t-10.5 -4q-13 0 -16 11q-4 17 -4 39.5v39.5q0 68 9.5 134.5t17.5 133.5q8 71 14.5 141t6.5 142q0 42 -3 84q-34 -29 -73.5 -46.5t-77.5 -40.5t-75.5 -54.5t-55.5 -73.5q-5 -10 -7 -19t-5 -20q-2 -9 -13 -9q-8 0 -12 5t-4 12q0 37 16 70t42.5 61.5t60.5 53 t70 45t71.5 36.5t64.5 28q6 3 11 3q7 0 11.5 -6t4.5 -12q0 -4 -3 -7q12 -46 15.5 -93t3.5 -95q0 -53 -3.5 -105.5t-9.5 -105.5q-7 -64 -13 -128t-15 -129q32 47 65.5 91t65.5 91q35 51 69 101.5t69 101.5q16 24 32 49t33 48q4 4 10 4t11 -4.5t7 -9.5q14 -36 21.5 -75.5 t10.5 -80t3.5 -81t0.5 -78.5q0 -48 1.5 -94.5t-0.5 -94.5q67 93 141.5 180t141.5 181q21 30 49 72t52.5 87.5t42 91t17.5 82.5q0 13 -2.5 26t-10.5 24q-14 22 -40 32t-51 13q-7 2 -14 1.5t-13 1.5q-12 1 -12 15q0 6 3.5 10.5t10.5 4.5q34 0 64.5 -7t54 -23t37.5 -42t14 -65z " />
<glyph unicode="X" horiz-adv-x="673" d="M837 696q0 -6 -4.5 -11t-11.5 -5q-3 0 -10.5 5t-18 11t-24 11t-30.5 5q-23 0 -44 -8.5t-40.5 -21.5t-36.5 -30t-30 -33q-35 -45 -66.5 -91.5t-60.5 -95.5q1 -81 3 -157t21 -156q11 -49 43.5 -74.5t83.5 -25.5q12 0 24 2.5t20 2.5q7 0 11 -5t4 -12q0 -8 -8 -13 q-7 -4 -18 -7t-22.5 -5t-23 -3t-18.5 -1q-45 0 -75 18.5t-49 49t-28.5 69.5t-13.5 80t-4 80.5v70.5q-42 -75 -84.5 -148t-99.5 -139q-13 -15 -28.5 -30.5t-33 -28t-37 -20t-41.5 -7.5q-25 0 -46 9.5t-39 24.5t-32.5 34.5t-26.5 39.5q-2 3 -5.5 9.5t-8 14t-7.5 14t-3 8.5 q0 7 5 11t11 4q7 0 12 -6q5 -7 8.5 -14t8.5 -13q17 -28 41.5 -55.5t56.5 -37.5q10 -3 21 -3q16 0 32 7t30 18t26 24t22 25q56 70 99.5 149t87.5 157l31 56v18q0 47 -3.5 97.5t-20.5 94.5q-19 51 -74 51q-21 0 -48.5 -9.5t-52 -21.5t-42.5 -21.5t-21 -9.5q-6 0 -10.5 5 t-4.5 11t5 11q14 11 37 24t48.5 24.5t50 19t42.5 7.5q36 0 67 -19.5t44 -54.5q14 -35 21 -72t9 -74q19 32 46.5 72t61.5 75t72.5 58.5t80.5 23.5q31 0 63.5 -14.5t52.5 -38.5q3 -5 3 -10z" />
<glyph unicode="Y" horiz-adv-x="742" d="M819 559q0 -6 -3 -9q-36 -52 -67.5 -102.5t-59.5 -102.5t-51.5 -106.5t-43.5 -114.5q-20 -58 -33.5 -117.5t-27 -119.5t-28.5 -119.5t-37 -117.5q-20 -52 -46 -98.5t-61.5 -82t-82.5 -56t-108 -20.5q-52 0 -97 16.5t-78.5 47t-52.5 73.5t-19 96q0 54 16.5 109t45.5 105.5 t69 92t87 67.5q4 2 7 2q6 0 10.5 -4.5t4.5 -10.5q0 -8 -8 -13q-10 -8 -20 -14.5t-20 -14.5q-45 -37 -76.5 -86t-51.5 -103q-10 -29 -16 -59.5t-6 -62.5q0 -46 15 -82t42 -60.5t64.5 -37.5t82.5 -13q23 0 45.5 4t44.5 14q35 15 63.5 44t51 67t40 81.5t30.5 87.5t22.5 86 t16.5 76q12 54 24 108.5t27 108.5q-17 -22 -40.5 -47.5t-51 -47t-57.5 -36t-60 -14.5t-48.5 12.5t-28 32t-13 43.5t-3.5 48q0 32 4 62.5t11 60.5q26 118 64 231t95 220q-29 -17 -58.5 -31t-58.5 -31q-39 -24 -77.5 -56t-56.5 -76q-4 -10 -6 -19t-4 -19q-3 -9 -14 -9 q-5 0 -10.5 4t-5.5 10q0 35 12.5 65.5t33.5 56.5t47.5 47.5t53.5 38.5q45 28 91.5 52.5t96.5 42.5q1 3 4.5 5t6.5 2q6 0 11.5 -4.5t5.5 -11.5q0 -3 -1 -4q-15 -41 -35.5 -93t-42.5 -109.5t-43 -118t-37.5 -118t-27 -110t-10.5 -94.5q0 -14 0.5 -28.5t5 -26.5t14 -20t27.5 -8 q13 0 25 4t23 9q36 18 66 44.5t56.5 57.5t50 64.5t44.5 65.5q2 2 2 3q18 38 40 78.5t47 80t53 76t57 66.5q5 5 12 5q6 0 10.5 -4t4.5 -11z" />
<glyph unicode="Z" horiz-adv-x="632" d="M1092 -72q0 -6 -4 -10q-34 -29 -75.5 -49.5t-86.5 -34.5t-91.5 -20.5t-89.5 -6.5q-137 0 -267 55q-60 26 -119 53.5t-119 53.5q-34 15 -71.5 28.5t-75.5 13.5q-24 0 -41.5 -6t-37.5 -19q-3 -2 -8 -2q-6 0 -11 5t-5 11t4 9q0 7 4 10q35 36 70.5 70.5t70.5 69.5 q75 74 149.5 146t152.5 142q69 63 139 124t146 115q-19 -3 -38 -4t-38 -1q-64 0 -127 7.5t-126 7.5q-59 0 -117 -12.5t-105 -50.5q-11 -9 -19.5 -18.5t-17.5 -19.5q-4 -4 -8 -4q-6 0 -11.5 5t-5.5 11q0 4 2 6q25 40 60.5 65.5t76.5 40t85.5 20t88.5 5.5q52 0 103 -4.5 t103 -4.5q60 0 113.5 7.5t110.5 24.5l2 1q7 0 12 -6t5 -12t-4 -10q-31 -28 -63.5 -54.5t-64.5 -52.5q-68 -55 -135 -110t-133 -114q-99 -88 -195 -176.5t-196 -176.5q7 1 13.5 1.5t13.5 0.5q39 0 77.5 -11.5t73.5 -27.5q60 -26 118 -55t118 -55q63 -27 130.5 -42t136.5 -15 q86 0 159.5 22.5t145.5 68.5q4 2 7 2q7 0 11 -5.5t4 -11.5z" />
<glyph unicode="[" horiz-adv-x="296" d="M491 736q0 -8 -7 -13t-16.5 -7.5t-19.5 -3.5t-16 -1q-14 0 -27 0.5t-27 0.5q-18 0 -36 1t-37 3q-4 -54 -16.5 -113t-31 -120.5t-42 -124t-49 -122t-52.5 -114.5t-52 -102q36 8 73 9q11 1 21.5 2.5t21.5 1.5q29 0 51 -16q2 -3 3.5 -7t1.5 -8q0 -8 -7 -13t-16.5 -7.5 t-19.5 -3t-16 -0.5q-12 0 -24.5 0.5t-25.5 0.5q-23 0 -46.5 1t-47.5 4q-4 3 -7.5 9t-3.5 12l1 2q13 32 27 63t27 63q28 66 53 132t48 135q19 57 33.5 115t31.5 115q8 27 16 55.5t19 54.5q2 5 5 5.5t8 2.5q26 5 51.5 9t51.5 6q11 1 21.5 2.5t21.5 1.5q28 0 51 -16 q2 -3 3.5 -7t1.5 -8z" />
<glyph unicode="\" horiz-adv-x="263" d="M253 206q0 -32 -1 -64t-3 -64q-2 -14 -2 -29t-3 -29q-2 -11 -14 -11q-5 0 -10 3.5t-6 8.5q-1 9 -0.5 19.5t0.5 19.5q0 23 -0.5 45.5t-1.5 45.5q-3 68 -8.5 135t-14.5 134q-8 60 -20.5 117.5t-22.5 117.5q-5 23 -9 49t-4 49q0 5 6.5 9.5t11.5 4.5q9 0 12 -7 q16 -33 29 -76.5t23 -93t17 -101.5t12 -102.5t7 -97t2 -83.5z" />
<glyph unicode="]" horiz-adv-x="306" d="M367 720q0 -86 -21 -171t-47 -166q-23 -72 -52 -142t-63 -138q-11 -23 -22.5 -47.5t-25.5 -46.5q-3 -5 -9 -5q-1 -7 -9 -15q-35 -7 -69.5 -9.5t-69.5 -2.5q-7 0 -17.5 1.5t-20 5t-16.5 9.5t-7 15q0 7 6 15q20 10 44 10q12 0 23.5 -1.5t23.5 -1.5q20 -2 46 -3t47 -6v1 q10 28 22.5 54.5t23.5 53.5q27 66 51.5 132.5t45.5 135.5q17 54 28.5 108.5t25.5 109.5q7 26 13.5 52.5t16.5 51.5q-30 -5 -60.5 -7t-61.5 -2q-7 0 -17.5 1.5t-20 4.5t-16.5 9t-7 15t7 16q19 10 43 10q12 0 24 -1.5t23 -2.5q23 -1 52.5 -3t50.5 -7q4 -1 6.5 -5.5t2.5 -8.5 q0 -5 -3 -8q9 -5 9 -11z" />
<glyph unicode="^" horiz-adv-x="376" d="M540 598q0 -7 -6 -12.5t-13 -5.5h-2q-1 0 -1 1q-18 15 -42 36t-50.5 41t-52.5 34.5t-49 16.5q-22 -9 -41 -23.5t-38 -29.5q-5 -4 -18.5 -15t-28.5 -22t-28 -20t-18 -9q-7 0 -13 6t-6 13l1 3q4 6 8.5 12.5t8.5 11.5q27 35 59.5 62.5t72.5 47.5q7 3 14.5 7t14.5 6h14 q37 0 70 -22q39 -27 75.5 -63t67.5 -73z" />
<glyph unicode="_" horiz-adv-x="591" d="M601 25q0 -5 -3 -9.5t-8 -5.5q-8 -2 -20 -2.5t-25.5 -1.5t-26 -1.5t-21.5 -0.5q-57 -3 -113.5 -5t-113.5 -2q-31 -1 -61 -2t-61 -1q-14 0 -34.5 0.5t-41.5 2.5t-41 4.5t-32 7.5q-5 2 -7 6.5t-2 9.5t2.5 9t7.5 6q10 3 28.5 5t38 3t38 1.5t30.5 0.5q34 0 67.5 -1t67.5 -1 q54 0 108 -1t108 -3q19 -1 37 -1.5t36 -1.5h15t16 -1q5 -1 8 -5.5t3 -9.5z" />
<glyph unicode="`" d="M670 623q0 -6 -5.5 -13t-11.5 -7t-21 7t-32.5 16t-32.5 18t-21 13q-8 5 -15.5 16.5t-7.5 21.5q0 5 5.5 12.5t10.5 7.5q21 0 39 -13q7 -5 13 -10.5t13 -10.5q36 -25 65 -54q0 -1 0.5 -2t0.5 -2z" />
<glyph unicode="a" horiz-adv-x="457" d="M477 156q-26 -53 -54 -94.5t-73 -80.5q-22 -20 -50 -20q-15 0 -28.5 8.5t-18.5 23.5q-2 5 -2.5 14t-1 19t0 19.5t0.5 15.5q-35 -42 -82.5 -71.5t-104.5 -29.5q-3 0 -8.5 2t-8.5 3q-23 11 -34.5 35t-11.5 48q0 33 8.5 65.5t23 63t33.5 58.5t40 53q54 67 124 116.5 t152 79.5q1 1 4 1q7 0 10.5 -5t3.5 -11q0 -9 -7 -12q-17 -9 -33.5 -16.5t-32.5 -16.5q-111 -64 -187 -164q-15 -20 -31 -45t-29 -51.5t-21.5 -54.5t-8.5 -54q0 -4 1 -11.5t3 -15t6.5 -13t10.5 -5.5q29 0 56.5 15t51.5 38t43 49t31 49q23 42 41 84.5t36 85.5q7 18 16.5 42 t18.5 41q4 7 13 7q7 0 12 -4t5 -11l-1 -2q-8 -36 -18 -72.5t-22 -71.5q-5 -14 -12 -31t-11 -29q-2 -7 -2.5 -14t-1.5 -14q-3 -16 -6.5 -31.5t-7.5 -31.5q-5 -20 -8.5 -40.5t-3.5 -41.5v-9t1 -8q7 0 16.5 6t19.5 14.5t18.5 17.5t13.5 14q30 32 57 71q7 8 12.5 17.5t12.5 17.5 q3 5 9 5q7 0 12 -5t5 -12z" />
<glyph unicode="b" horiz-adv-x="399" d="M419 356q0 -30 -8 -59.5t-24 -54.5q-54 -87 -127.5 -158.5t-162.5 -120.5v-4q0 -5 -5.5 -10.5t-10.5 -5.5q-13 0 -13 12q-9 5 -9 15q0 4 3 9q-11 58 -11 114q0 97 24 190.5t56 184.5q18 51 40.5 102t51 99.5t64 92t77.5 78.5q3 3 7 3q7 0 12 -5t5 -11q0 -5 -2 -7 q-36 -54 -67.5 -101t-58.5 -94.5t-51 -99t-45 -114.5q34 31 72 53.5t86 22.5q8 0 12 -1q5 -1 14.5 -6t14.5 -8q30 -20 43 -50.5t13 -65.5zM372 355q0 13 -3.5 28.5t-10 29t-17.5 22.5t-26 9q-23 0 -46.5 -9.5t-45.5 -23.5t-42 -30.5t-37 -30.5q-23 -72 -39.5 -145 t-16.5 -148q0 -26 3 -53q21 18 50 43.5t60 54.5t61.5 61t55 65t39.5 65t15 62z" />
<glyph unicode="c" horiz-adv-x="326" d="M346 471q0 -10 -8 -13q-17 -8 -33.5 -15t-32.5 -18q-67 -41 -115 -104t-68 -139q-9 -39 -9 -79q0 -14 2 -30.5t7.5 -32.5t15 -29t24.5 -19q1 -1 3.5 -1h3.5q25 0 46 13.5t38 30.5q27 27 51 62l10 14t10 13q3 5 9 5t11.5 -4.5t5.5 -10.5q0 -2 -4.5 -10t-10.5 -17.5 t-11.5 -18t-7.5 -11.5q-14 -21 -29.5 -41t-34 -35t-41.5 -24t-50 -9q-6 0 -9 1q-19 3 -33.5 14.5t-25 28t-16.5 35t-9 35.5q-2 12 -3 24t-1 25q0 43 10 82q10 44 29.5 87t47.5 80t64 65.5t80 45.5q15 6 34 11.5t36 5.5q5 0 9.5 -6t4.5 -11z" />
<glyph unicode="d" horiz-adv-x="454" d="M546 776q0 -3 -1 -5q-32 -77 -61.5 -153.5t-55.5 -156.5q7 -2 16 -6t9 -12q0 -7 -4 -12t-11 -5q-4 0 -9.5 2t-9.5 4q-15 -46 -30 -98t-27.5 -105t-20.5 -105.5t-8 -100.5v-10.5t1 -12.5t3.5 -10.5t8.5 -4.5q9 0 25.5 14t33.5 32.5t32.5 36t22.5 24.5q3 5 9 5t11 -5t5 -11 q0 -5 -2 -7q-20 -31 -44 -58t-51 -51q-20 -18 -43 -18q-20 0 -31 11t-16.5 26.5t-7 33.5t-1.5 33q0 10 0.5 19.5t1.5 18.5q-13 -19 -33 -42.5t-43.5 -44.5t-49 -35.5t-50.5 -14.5q-26 0 -42.5 12t-25.5 30.5t-12.5 40.5t-3.5 42q0 43 10.5 87.5t29 87t43.5 81t55 68.5 q35 35 82 54.5t98 19.5h13.5t13.5 -1q11 37 25.5 79t32.5 84t39.5 81t45.5 69q3 5 10 5q6 0 11.5 -4.5t5.5 -11.5zM366 440h-8q-59 1 -104.5 -27.5t-79 -73t-55 -98.5t-31.5 -104q-6 -26 -6 -52q0 -8 0.5 -21.5t4 -26.5t10 -22t18.5 -9q16 0 42.5 19.5t54 46t52.5 52.5 t37 38q2 2 4 2q5 70 23.5 139.5t37.5 136.5z" />
<glyph unicode="e" horiz-adv-x="359" d="M395 417q0 -25 -12 -49.5t-30.5 -46.5t-40.5 -40t-41 -31q-29 -20 -60.5 -37t-68.5 -17q-8 0 -17.5 2t-9.5 13q0 14 13 17q3 1 7 1t8 1q11 2 21.5 7t21.5 11q17 11 43 31t51 44t42.5 49t17.5 47q0 14 -15 14q-6 0 -12 -2l-12 -4q-48 -16 -88 -48.5t-69 -75.5t-45.5 -92 t-16.5 -98q0 -16 2.5 -36.5t10 -38.5t20.5 -30.5t34 -12.5q8 0 15 2.5t14 6.5q27 15 50 40.5t41 51.5q5 6 9.5 13t9.5 14q3 5 10 5q6 0 11.5 -4t5.5 -11q0 -2 -2 -6q-12 -22 -30 -48.5t-40 -49.5t-47.5 -38.5t-53.5 -15.5q-31 0 -51.5 17.5t-32.5 43t-17 55t-5 53.5 q0 76 32 145.5t86 122.5q16 16 37 32.5t44.5 30t48 22t47.5 8.5q29 0 46.5 -19.5t17.5 -48.5z" />
<glyph unicode="f" horiz-adv-x="294" d="M581 792q0 -11 -11 -15q-17 -7 -31.5 -11.5t-31.5 -12.5q-40 -20 -72.5 -49.5t-59 -64.5t-47 -74t-36.5 -79l-1 -3q20 3 39.5 6t39.5 3q10 0 27 -1.5t26 -5.5q4 -2 6.5 -8t2.5 -10q0 -3 -1.5 -6.5t-5.5 -5.5q-35 -16 -77 -19.5t-80 -7.5q-35 -88 -65 -176t-60 -178 q-21 -63 -39 -127t-39 -126.5t-48 -123t-65 -115.5q-18 -25 -40.5 -47.5t-49 -39.5t-56.5 -27t-61 -10q-38 0 -75.5 13.5t-71 35.5t-61.5 51t-47 61q-2 6 -2 8q0 6 4.5 10t10.5 4q7 0 13 -6q8 -11 15 -20.5t15 -19.5q34 -36 77 -62t93 -34q6 -1 12 -1.5t12 -0.5 q39 0 72.5 16.5t61.5 44t50.5 63.5t41 74t32 75.5t23.5 68.5q20 63 37 125.5t37 125.5q28 84 54.5 166.5t57.5 164.5q-33 -3 -66 -5t-66 -2q-4 0 -7.5 6.5t-3.5 10.5q0 10 8 13q12 3 24.5 5t24.5 4q26 5 53 9.5t54 9.5q3 9 6.5 17.5t7.5 16.5q21 53 51 104.5t69.5 93 t89.5 69.5t110 34h4q6 0 10.5 -4.5t4.5 -10.5z" />
<glyph unicode="g" horiz-adv-x="433" d="M433 456q0 -2 -2 -6q-2 -17 -3.5 -32.5t-4.5 -31.5q-5 -33 -11 -65t-13 -64q-25 -115 -61.5 -226t-80.5 -220q-16 -39 -33.5 -78.5t-39 -77t-47.5 -71.5t-59 -62q-46 -41 -106 -41q-32 0 -62 11t-56 29.5t-46.5 44t-31.5 54.5q-1 1 -1 5q0 6 5 10t11 4q7 0 12 -7 q5 -9 9.5 -18t11.5 -17q26 -32 63.5 -53.5t78.5 -21.5q47 0 83 33q28 25 53 61t47.5 78t42 88t36 91.5t30.5 88.5t26 79q-36 -35 -78 -55t-93 -20h-3t-3 1q-23 5 -38.5 18t-25 30.5t-13.5 38t-4 41.5q0 60 17.5 119t52.5 109q22 30 50 58.5t61 50t70 35t76 13.5q6 0 19 -1 t26.5 -3.5t24 -7.5t10.5 -12zM398 444q-15 4 -34 4q-35 0 -69 -13t-64 -34.5t-55 -48.5t-44 -54q-28 -42 -42.5 -93t-14.5 -102q0 -11 1.5 -26t6 -28.5t14 -23t24.5 -9.5q31 0 60.5 15t54.5 38t44.5 51.5t31.5 54.5q30 65 48.5 133t37.5 136z" />
<glyph unicode="h" horiz-adv-x="505" d="M535 65q0 -8 -5 -10q-12 -11 -33.5 -25.5t-45 -27.5t-46.5 -22.5t-39 -9.5q-12 0 -22 5.5t-17.5 14.5t-12 20t-4.5 22q0 2 0.5 4.5t0.5 4.5q3 22 6 43t9 42q10 40 24.5 78.5l29 77t28 77t22.5 78.5q2 6 2.5 12t1.5 12q-17 -2 -38.5 -13t-43.5 -26t-41.5 -31.5 l-32.5 -27.5q-16 -14 -37 -33t-41 -40t-37 -42.5t-24 -41.5q-8 -20 -13 -40.5t-12 -40.5q-13 -42 -27.5 -84t-31.5 -84q-6 -14 -12 -29.5t-14 -28.5q-4 -7 -12 -7q-5 0 -11 4.5t-6 10.5q0 1 1.5 7t3 13.5t3 14t1.5 8.5q23 101 55 198t63 196q27 88 55 174.5t57 173.5 q9 29 18.5 58t19.5 58q5 12 8.5 25t8.5 25q3 8 12 8q5 0 11 -4.5t6 -10.5l-1 -1q-32 -128 -68.5 -254t-74.5 -252q21 22 53 51.5t68 55.5t73.5 44.5t69.5 18.5q7 0 14 -4t13 -10.5t10 -14t4 -14.5q0 -11 -1 -22.5t-4 -22.5q-10 -40 -24 -79t-29.5 -77.5t-30.5 -77t-27 -78.5 q-5 -17 -10.5 -38.5t-5.5 -39.5q0 -9 2.5 -18t13.5 -9q18 0 43 11t48 24.5t40 25t21 11.5q7 0 11 -5t4 -11z" />
<glyph unicode="i" horiz-adv-x="265" d="M296 745q0 -6 -5 -14l-1 -3q2 -6 2 -9q-7 -5 -10 -10.5t-14 -5.5q-9 0 -18 7.5t-9 18.5q0 18 3.5 29.5t26.5 11.5q9 0 17 -8t8 -17zM289 107q0 -5 -3 -8q-19 -23 -36.5 -45.5t-37 -41.5t-43.5 -32.5t-55 -19.5q-27 12 -37 31.5t-10 47.5v36q0 26 5.5 54t11.5 54 q9 39 20.5 84t27 89.5t35.5 86t45 72.5q5 5 10 5q6 0 12 -4.5t6 -11.5v-2q-17 -53 -38.5 -111.5t-41 -119t-33 -120.5t-13.5 -116q0 -6 0.5 -17t6.5 -14q22 4 46.5 23t46 40t37.5 38t22 17q5 0 10.5 -5t5.5 -10z" />
<glyph unicode="j" horiz-adv-x="231" d="M262 733q-2 -8 -3.5 -13t-6.5 -11l2 5q-9 -12 -21 -12q-16 0 -23 14.5t-7 28.5q0 10 8.5 17t17.5 7q5 0 9 -1l8 -2q13 -10 12 -24q1 -2 2 -4.5t2 -4.5zM229 481q0 -16 -4 -36t-7 -36q-21 -122 -60.5 -237.5t-85.5 -230.5q-16 -39 -33.5 -78.5t-38.5 -77t-47 -71.5 t-59 -62q-48 -40 -106 -40q-32 0 -62.5 10.5t-56.5 29t-46 44t-32 54.5q0 2 -0.5 2.5t-0.5 2.5q0 6 5.5 10t11.5 4q7 0 11 -7q5 -8 9.5 -16.5t11.5 -16.5q24 -33 62 -55t80 -22q48 0 84 33q28 25 51.5 58.5t43 70t35.5 74t30 72.5q35 88 64 176.5t57 179.5l36 119q5 13 8 26 t8 25q5 10 15 10q6 0 11 -4t5 -11z" />
<glyph unicode="k" horiz-adv-x="404" d="M455 -34q0 -8 -7 -11q-15 -5 -32.5 -8.5t-33.5 -3.5q-39 0 -63.5 18t-40.5 46t-26.5 63t-22 70t-27.5 66t-42 50l-8 -5q-20 -67 -40 -132.5t-45 -130.5q-8 -20 -17.5 -45t-20.5 -44q-3 -7 -12 -7q-5 0 -11 4.5t-6 10.5q0 1 1.5 7t3 13.5t3 14t1.5 8.5q23 101 55 198 t63 196q54 175 111 348q10 29 19.5 58t19.5 58q4 12 7.5 25t8.5 25q5 8 12 8q5 0 11 -4.5t6 -10.5v-1q-35 -139 -74.5 -274.5t-80.5 -272.5l56 46t55 47q29 26 54.5 57.5t54.5 54.5l4 2t4 1q3 0 11 -6.5t8 -9.5q0 -2 -3 -11.5t-4 -12.5q-14 -35 -40.5 -62t-55.5 -51 q-26 -22 -55 -41.5t-58 -37.5q25 -12 41 -33t26.5 -46.5t17.5 -54t14 -55.5t16.5 -50t25.5 -39q12 -12 28 -16.5t33 -4.5q11 0 21 2t20 2q4 0 9 -7t5 -11z" />
<glyph unicode="l" horiz-adv-x="305" d="M361 65q0 -5 -4 -9q-16 -15 -39 -34t-48.5 -35t-52 -27t-48.5 -11q-32 0 -50 16t-27.5 39.5t-12 51t-2.5 51.5q0 56 11 110t24 108q25 105 60.5 205t89.5 194q10 18 20.5 36t22.5 34q4 6 11 6q6 0 11.5 -4t5.5 -11q0 -3 -1 -5q-45 -116 -93 -231t-78 -236 q-14 -54 -25.5 -109.5t-11.5 -112.5q0 -15 0.5 -32.5t5 -32.5t15 -25.5t30.5 -10.5q22 0 49.5 14t53 31.5t44.5 31.5t23 14q6 0 11 -5t5 -11z" />
<glyph unicode="m" horiz-adv-x="680" d="M721 63q0 -7 -17.5 -20.5t-40.5 -27t-44.5 -25t-29.5 -14.5q-19 -7 -36 -7q-32 0 -44.5 21t-12.5 50q0 31 11 73t26.5 86.5t32 87t27.5 73.5q7 21 15.5 48t8.5 50q-14 -4 -32.5 -12.5t-30.5 -16.5q-45 -30 -87 -62.5t-84 -67.5q-16 -63 -36 -125t-46 -122 q-8 -17 -15.5 -35t-17.5 -33q-4 -7 -11 -7q-5 0 -11.5 5t-6.5 10q0 1 2.5 12.5t3.5 12.5q14 62 33.5 121.5t39.5 119.5q16 54 30 108q6 23 11 46.5t5 46.5q0 4 -0.5 7t-0.5 6q-24 -5 -52.5 -29.5t-56.5 -56t-53 -63t-42 -50.5q-2 -2 -3 -2q-3 -6 -5.5 -12t-5.5 -11 q-23 -45 -43.5 -89t-39.5 -90q-11 -25 -19.5 -50.5t-18.5 -50.5q-3 -8 -11 -8q-5 0 -11.5 5t-6.5 9q0 1 1.5 6.5t3 12.5t3 13t1.5 8q17 66 41.5 130t54.5 126q14 29 27 58.5t28 58.5l14 28t17.5 31.5t19.5 30t19 23.5q4 4 9 4q4 0 11 -5.5t7 -10.5q0 -3 -3.5 -13t-7.5 -22 t-8.5 -22.5t-5.5 -14.5q11 13 27 31t34.5 34.5t38.5 27.5t39 11q15 0 24.5 -6t14 -15.5t6 -21.5t1.5 -24q0 -20 -3 -40t-8 -40q19 19 46 43.5t58 46t62.5 36t58.5 14.5q16 0 29.5 -13t13.5 -29q0 -19 -2 -37t-8 -36q-12 -41 -28 -81.5t-32 -80.5t-30.5 -80t-24.5 -82l-4 -20 t-2 -20q0 -11 2 -18.5t15 -7.5q17 0 41 11t47.5 24.5t41 24.5t21.5 11q6 0 10.5 -5t4.5 -11z" />
<glyph unicode="n" horiz-adv-x="463" d="M504 67q0 -6 -5 -9q-11 -9 -26 -20t-32 -21.5t-33.5 -19.5t-29.5 -14q-23 -10 -43 -10q-30 0 -43.5 21.5t-13.5 47.5q0 31 10 70.5t24 80.5t29.5 80.5t26.5 69.5q11 29 20 58.5t12 61.5q-18 -2 -49 -20t-64.5 -41.5t-63.5 -46.5t-47 -35l-36 -72q-24 -47 -45.5 -93.5 t-41.5 -94.5q-9 -23 -17 -46t-18 -46q-3 -8 -11 -8q-4 0 -10.5 5t-6.5 9q0 1 1.5 6.5t3 12.5t3 13t1.5 8q17 66 41.5 130t54.5 126q14 29 27 58.5t27 58.5q6 11 14.5 27t18 32.5t19.5 31t19 22.5q4 4 9 4q4 0 11 -5.5t7 -10.5q0 -3 -3.5 -14t-8.5 -23.5t-9.5 -24t-5.5 -15.5 q17 16 39.5 35t48 35t52.5 26.5t51 10.5q14 0 26.5 -12.5t14.5 -26.5q2 -10 2 -15q0 -17 -6.5 -41.5t-12.5 -41.5q-10 -29 -29 -76.5t-38 -97.5t-33 -96t-14 -72q0 -11 2 -18.5t15 -7.5q18 0 42.5 11t47.5 24.5t40 24.5t21 11q6 0 10.5 -5.5t4.5 -11.5z" />
<glyph unicode="o" horiz-adv-x="445" d="M445 360q0 -38 -8.5 -83t-25.5 -90t-41.5 -87.5t-56 -75.5t-70 -52.5t-82.5 -19.5q-33 0 -57 17.5t-40.5 44.5t-24.5 58.5t-8 59.5q0 33 9 65q28 92 90 164t151 108q2 1 5 1q7 0 10.5 -5t3.5 -11q0 -7 -8 -12q-14 -8 -28 -15.5t-28 -18.5q-55 -40 -94 -99t-59 -124 q-7 -21 -7 -47q0 -21 6 -45t18 -44.5t30.5 -34t43.5 -13.5q16 0 30.5 6t27.5 15q38 27 68 70t51 92.5t32 101t11 97.5v12q-2 26 -17.5 44t-38.5 29q-7 3 -13.5 5t-12.5 5q-10 4 -10 14q0 7 4 12t11 4h1q22 -2 43.5 -10t38.5 -22t28.5 -33t14.5 -43q2 -10 2 -19.5v-20.5z" />
<glyph unicode="p" horiz-adv-x="418" d="M418 355q0 -64 -22.5 -123.5t-57.5 -113.5q-17 -25 -36.5 -48.5t-43 -41.5t-51 -29t-59.5 -11q-4 0 -12.5 0.5t-11.5 1.5q-16 4 -29 17t-19 28q-12 -32 -31 -80.5t-44 -102.5t-55.5 -108.5t-65 -98t-73 -70.5t-78.5 -27q-28 0 -50 10.5t-39.5 28t-31.5 39t-26 43.5 q-2 4 -2 6q0 6 5.5 10.5t10.5 4.5q7 0 11 -6q5 -8 10 -15t10 -15q17 -24 41 -46t56 -22q29 0 57.5 21t55.5 55t51 75.5t44 82.5t35.5 77.5t24.5 58.5q35 89 62 179t51 183q8 31 15.5 61t15.5 61q4 13 6.5 26.5t7.5 26.5q4 10 14 10q7 0 12 -3.5t5 -10.5q0 -11 -1 -24t-3 -27 l7 3.5t6 3.5q27 14 51.5 23.5t54.5 14.5q5 1 9.5 1.5t9.5 0.5q19 0 36 -7.5t30.5 -20t22.5 -29t12 -34.5q1 -10 1.5 -19.5t0.5 -19.5zM373 363q0 34 -14 58.5t-52 24.5q-19 0 -41 -6.5t-41 -14.5t-33.5 -15t-18.5 -7q-6 -41 -14.5 -82t-16.5 -71q-4 -17 -9.5 -34.5 t-8.5 -34.5q-3 -16 -4 -39t-1 -40v-15.5t1.5 -18.5t5 -16t11.5 -9q3 -1 6.5 -1h6.5q22 0 43.5 10t40.5 25t35 33.5t27 35.5q31 48 54 104t23 113z" />
<glyph unicode="q" horiz-adv-x="421" d="M513 -329q0 -5 -4 -9q-17 -17 -42.5 -38t-54 -39t-57.5 -30t-54 -12q-36 0 -56.5 19t-31 46.5t-13.5 59.5t-3 59q0 37 5.5 82t14.5 91t20 90t21 81q-5 -5 -9 -9.5t-9 -9.5q-15 -15 -29.5 -29t-31 -24.5t-35 -17t-41.5 -6.5q-16 0 -28 8t-20.5 20t-13.5 26.5t-7 27.5 q-3 18 -3 38q0 62 22.5 130.5t63.5 126t97.5 95t125.5 37.5h14t17.5 -1.5t14.5 -5.5t6 -11q0 -5 -4 -10t-10 -5q-7 0 -13.5 1t-13.5 1q-41 0 -77 -16t-66 -43t-54 -63t-40.5 -75.5t-25 -80t-8.5 -76.5q0 -8 0.5 -19.5t3 -23t8 -20.5t15.5 -11q27 4 52.5 23.5t48 45t41 53 t32.5 49.5q25 41 45 82.5t40 84.5q9 20 17 41t19 41q5 7 11 7q2 4 6 11.5t8.5 14.5t9.5 12.5t10 5.5q6 0 11.5 -4.5t5.5 -10.5q0 -4 -1 -5q-51 -131 -101 -260t-82 -266q-14 -59 -25 -118.5t-11 -119.5q0 -20 1.5 -41t6.5 -41q11 -46 56 -46q24 0 55 16t59.5 35.5t49.5 35.5 t25 16q7 0 11.5 -5t4.5 -11z" />
<glyph unicode="r" horiz-adv-x="355" d="M422 400q0 -8 -1 -15t-3 -15t-11 -8q-4 0 -11.5 3.5t-7.5 7.5l1 9q0 7 -1.5 17t-5 19.5t-9.5 16t-16 6.5q-24 0 -51 -14.5t-46 -28.5q-8 -6 -22 -18t-29 -26t-27.5 -27t-17.5 -21q-3 -4 -7.5 -14.5t-9 -22.5t-9 -23t-7.5 -17q-20 -48 -38.5 -96t-34.5 -97 q-8 -23 -14.5 -47.5t-14.5 -47.5q-4 -8 -10 -8q-4 0 -11.5 4.5t-7.5 8.5q0 11 3.5 25t5.5 25q13 65 32 128t44 124q9 24 21.5 57t26.5 67.5t29.5 65t31.5 48.5q4 4 9 4q4 0 11.5 -4.5t7.5 -9.5q0 -3 -2 -10.5t-4 -16t-4.5 -16l-3.5 -10.5q32 24 67 43t77 19q18 0 31 -7.5 t22 -19.5t13 -27t4 -31z" />
<glyph unicode="s" horiz-adv-x="369" d="M461 480q0 -13 -12 -15q-5 -2 -9.5 -1.5t-9.5 -0.5q-12 -1 -23.5 -3t-23.5 -4q-54 -11 -105.5 -35.5t-89.5 -64.5q-11 -12 -17.5 -25.5t-6.5 -30.5q0 -11 12 -17t29.5 -12t38 -13t38 -20t29.5 -33.5t12 -52.5q0 -37 -14 -71t-39 -60.5t-58 -42t-70 -15.5q-35 0 -61.5 15 t-44.5 39t-27 54.5t-9 62.5q0 6 0.5 15.5t2 18.5t5.5 16t12 7q5 0 10.5 -4t5.5 -10q0 -23 5.5 -51t17.5 -52t32 -40.5t49 -16.5q26 0 50 11.5t42.5 30.5t29 43.5t10.5 50.5v10q0 17 -11.5 28t-28.5 18.5t-37 14.5t-37 16.5t-28.5 23.5t-11.5 37q0 24 10.5 46t27.5 39 q59 57 135.5 82.5t157.5 25.5q6 0 9 -4.5t3 -9.5z" />
<glyph unicode="t" horiz-adv-x="331" d="M352 655q0 -2 -0.5 -3t-0.5 -2q-31 -69 -64 -136.5t-59 -139.5q11 0 21 0.5t21 0.5q5 0 11.5 0.5t12 -1t9.5 -5t4 -11.5q0 -10 -8 -13q-7 -2 -18.5 -4.5t-24 -4.5t-24 -3.5t-19.5 -2.5q-9 -26 -17 -57.5t-14 -65t-10 -66t-4 -59.5q0 -7 0.5 -21.5t3 -28.5t8 -25t15.5 -11 q14 0 32 14t35.5 32.5t33 37t25.5 28.5q4 4 9 4q6 0 11.5 -5t5.5 -11q0 -3 -3 -7q-11 -16 -28.5 -39.5t-38 -45t-43 -36.5t-43.5 -15q-23 0 -37 16t-21.5 38.5t-10 47t-2.5 41.5q0 24 3.5 54t8.5 61t12 60.5t13 53.5q-8 0 -15.5 -0.5t-15.5 -0.5q-21 0 -43 1t-43 4.5t-41 12 t-36 23.5q-4 3 -4 9q0 2 6 10.5t8 8.5q37 0 73 -8t73 -10q12 -1 24.5 -1h25.5h3q11 34 27 74t36 79t42.5 75.5t46.5 63.5q6 4 10 4q6 0 12 -4.5t6 -10.5z" />
<glyph unicode="u" horiz-adv-x="488" d="M529 99q0 -4 -4 -8q-20 -23 -38 -45t-38.5 -41t-45 -33t-55.5 -21q-46 21 -46 71q0 11 2 22.5t1 23.5q-14 -15 -34.5 -33.5t-44 -35.5t-47.5 -28.5t-45 -11.5q-28 0 -46 11.5t-28.5 30t-14.5 42t-4 46.5q0 24 3 47q5 48 17 92.5t29 88.5q13 31 27 61.5t28 60.5 q5 10 10 22.5t11 20.5q5 7 12 7q5 0 11 -5t6 -10q0 -7 -2.5 -19.5t-6 -26t-7 -26t-6.5 -19.5q-11 -36 -25.5 -71.5t-27 -72t-21 -73.5t-8.5 -75q0 -11 1 -25.5t5 -28t12.5 -23t23.5 -9.5q20 0 45.5 13.5t51 32t48.5 38.5t37 33q9 43 24.5 96.5t36.5 107.5t46 102.5t54 81.5 q5 5 10 5q6 0 12 -5t6 -12q-1 -1 -1 -2q-19 -53 -45.5 -114.5t-50.5 -125t-41 -126.5t-17 -120q0 -4 0.5 -8t4.5 -6q23 4 48.5 23t48 40.5t39.5 38.5t22 17q6 0 11.5 -5t5.5 -11z" />
<glyph unicode="v" horiz-adv-x="381" d="M544 637q0 -42 -17.5 -85.5t-43.5 -85t-57 -79t-58 -66.5q-43 -47 -86.5 -91.5t-85.5 -92.5q-30 -35 -58 -70.5t-54 -73.5q-9 -14 -17.5 -28.5t-17.5 -28.5q-4 -6 -10 -6q-4 0 -11.5 5t-7.5 9q0 8 2 17t4 17q10 54 25.5 105.5t27.5 105.5q11 49 21 98t17 99q2 16 4 32.5 t4 33.5q1 7 0.5 14t1.5 14q1 5 5.5 8t9.5 3t9.5 -3t5.5 -8q2 -12 1.5 -25.5t-0.5 -25.5q0 -78 -12 -152.5t-29 -149.5q20 26 42.5 51t45.5 49t54 54.5t64 65.5t65.5 72.5t58 76t41 76t15.5 72.5q0 41 -24 73q-17 23 -42 38t-51 26q-5 2 -12 4t-12 5q-8 5 -8 12q0 5 4.5 11 t10.5 6l2 -1q34 -9 65.5 -24t55.5 -37t38 -51.5t14 -68.5z" />
<glyph unicode="w" horiz-adv-x="658" d="M832 629q0 -27 -8 -54q-18 -61 -55.5 -117.5t-83.5 -110t-95 -103t-91 -96.5q-40 -45 -76 -92t-67 -99l-6 -10t-10 -5q-4 0 -11 5t-7 9q0 15 4.5 35t7.5 34q9 42 21 83t20 83q11 50 20 99t15 100q-28 -45 -60 -86.5t-64 -83.5q-39 -51 -79.5 -101t-83.5 -98 q-15 -17 -30 -33t-31 -32q-3 -3 -8 -3t-14 6.5t-9 11.5q0 28 4.5 57t11 59t13.5 59t12 57q10 47 19.5 93t20.5 93q5 22 9.5 44.5t11.5 43.5q3 8 12 8q4 0 11 -4.5t7 -8.5q0 -7 -1.5 -17.5t-3 -22t-3.5 -22.5t-3 -19q-6 -50 -14 -99l-16 -98q-7 -38 -13 -75.5t-17 -74.5 q39 51 77.5 102.5t76.5 103.5q42 57 81.5 114.5t90.5 107.5q4 10 15 10q5 0 9.5 -3t4.5 -8q1 0 1 0.5t1 0.5t1.5 -2.5t0.5 -4.5t-1 -4l-2 -4q1 -11 1 -22.5v-23.5q0 -71 -10 -140t-24 -139q20 26 41.5 50.5t44.5 47.5q22 23 52.5 53t62.5 64t63 70.5t56 74t40 74.5t15 70 q0 41 -23 71q-16 20 -38.5 34t-45.5 25q-8 3 -15.5 5.5t-13.5 5.5q-9 4 -9 13q0 5 5 10.5t10 5.5h2q33 -9 64 -23.5t54.5 -36t37.5 -50.5t14 -67z" />
<glyph unicode="x" horiz-adv-x="382" d="M469 120q0 -2 -2 -8q-13 -21 -33 -49.5t-44 -54t-49.5 -43t-49.5 -17.5q-20 0 -38 9.5t-30 27.5q-14 20 -24.5 46t-18 54t-13 56t-9.5 54q-51 -71 -94 -146.5t-89 -148.5q-46 -75 -98 -143t-121 -122q-27 -21 -59 -35t-65 -14q-36 0 -65 17.5t-52.5 46t-41 64t-30.5 70.5 q-1 2 -1 6q0 7 4.5 11.5t9.5 4.5q9 0 12 -8q5 -10 9 -20t9 -20q17 -35 40 -66.5t53 -48.5q23 -13 49 -13q29 0 56 13t50 32q52 44 95.5 97.5t81.5 113.5q39 60 74.5 122.5t71.5 124.5q21 35 43.5 69t46.5 66q-5 48 -10 96.5t-5 96.5q0 6 6 11t10 5q9 0 12 -9 q11 -31 18 -72.5t12 -75.5q52 58 112.5 99.5t130.5 57.5l2 1q6 0 10.5 -5.5t4.5 -12.5q0 -10 -9 -15q-7 -4 -14 -7t-13 -6q-64 -32 -117 -79.5t-98 -103.5q1 -11 3.5 -28t5.5 -37t7 -41.5t9 -42.5q11 -43 27.5 -73.5t40.5 -30.5q5 0 10.5 2t10.5 4q20 10 37.5 25t33.5 33 q17 17 31.5 36.5t30.5 37.5q4 4 8 4q5 0 10 -5.5t5 -12.5z" />
<glyph unicode="y" horiz-adv-x="443" d="M499 470q0 -4 -1 -6q-38 -102 -81 -199.5t-81 -199.5q-19 -49 -33.5 -98t-28.5 -100q-3 -11 -6.5 -20.5t-7.5 -20.5q-12 -37 -25 -72.5t-30 -69.5t-39 -64.5t-50 -53t-61 -36t-72 -13.5q-41 0 -76.5 14.5t-65.5 39t-53.5 58t-41.5 72.5q-2 4 -2 7q-1 8 4.5 11.5t11.5 3.5 q4 0 7 -3t5 -6q7 -11 12.5 -23.5t13.5 -23.5q15 -21 34.5 -40.5t43 -34t49.5 -23t53 -8.5q41 0 76 20q50 30 83 83t57 117q23 62 39.5 126.5t33.5 120.5q-12 -11 -29 -24t-35 -24.5t-36.5 -19.5t-33.5 -8q-29 0 -52.5 19t-29.5 51q-5 20 -6 37q-2 31 2.5 65.5t13 69t19.5 67 t23 59.5q25 58 54 114q6 11 11 23t12 23q4 6 12 6q5 0 11 -5.5t7 -11.5l-3 -15q-9 -42 -23.5 -82t-30.5 -78q-11 -27 -22.5 -56.5t-20 -59.5t-13.5 -60.5t-3 -60.5q1 -9 2.5 -19t5.5 -18.5t10 -14t16 -5.5q17 0 40 11.5t46 27t43.5 32.5t33.5 29q26 72 56 140.5t65 134.5 q14 26 28 53.5t30 52.5q4 7 12 7q7 0 11.5 -5.5t5.5 -12.5z" />
<glyph unicode="z" horiz-adv-x="377" d="M781 -57q-12 -65 -48.5 -102.5t-105.5 -41.5q-35 -2 -72 4.5t-74 17.5t-73 24.5t-69 26.5q-48 19 -96.5 39t-99.5 25q-16 2 -31 2.5t-30 -0.5q-7 -1 -13 -1t-13 -1q-19 -2 -37.5 -5.5t-36.5 -8.5q-8 -2 -17.5 -5.5t-16.5 -4.5q-6 0 -12 5t-7 11q-2 9 5 13 q58 81 123 157.5t134 148.5q41 42 81 83.5t84 80.5q-22 -5 -47 -8.5t-48 -4.5q-17 -1 -37 -0.5t-40.5 3.5t-40 9t-34.5 16q-6 4 -6 8q-1 5 3 12t10 7h2q49 -11 99 -10q17 2 32.5 3.5t31.5 3.5q29 4 56.5 11t56.5 9q5 1 16 1t16 -3q1 3 6 3q6 0 12 -4.5t7 -11.5q1 -3 -1 -8 q-21 -33 -49 -64t-58 -61t-61 -58.5t-59 -56.5q-57 -57 -110.5 -115t-107.5 -118q42 15 89 18q37 2 69.5 -4.5t63.5 -17t62 -24.5t65 -27q58 -23 117 -44t120 -31q20 -3 36 -2q6 0 10 1q35 4 62.5 22t41.5 50q4 9 6 18t5 17q2 8 10 8q6 0 11.5 -4t7.5 -11z" />
<glyph unicode="{" horiz-adv-x="251" d="M395 734q0 -4 -2.5 -9t-6.5 -7q-19 -10 -35.5 -24.5t-28.5 -32.5q-4 -7 -8 -20.5t-6 -21.5q-4 -13 -7 -25.5t-6 -25.5q-8 -32 -13.5 -65.5t-21.5 -62.5q-11 -20 -31.5 -33.5t-41.5 -21.5q35 -25 35 -68q0 -12 -6 -27.5t-14 -31.5t-17.5 -31.5t-15.5 -26.5 q-15 -27 -29.5 -54t-25.5 -57q-5 -12 -9.5 -27.5t-4.5 -28.5t5.5 -15.5t16.5 -2.5q4 0 7 -6t3 -9q0 -5 -2.5 -9t-7.5 -6h1q-3 -1 -10 -1q-20 0 -36 14t-16 34q0 52 20 100t44 93q4 7 10.5 19.5t13 26t11.5 26t7 20.5v3q0 13 -11 29t-22 23q-4 2 -5.5 2.5t-3.5 4.5 q-3 4 -3 10q0 3 1.5 6t5.5 4l-1 2q0 3 5.5 3.5t7.5 0.5q10 4 22 9t23.5 12t20.5 15.5t14 18.5q5 13 7.5 27.5t4.5 28.5q3 15 7 40t10 51t12.5 49.5t13.5 34.5t17.5 21.5t23.5 18.5t27 13t27 5q8 0 16 -2t8 -13z" />
<glyph unicode="|" horiz-adv-x="276" d="M327 734q0 -38 -8 -84t-20 -93t-26.5 -92t-27.5 -82q-25 -72 -54.5 -141t-64.5 -138q-13 -26 -27.5 -56t-29.5 -53q-5 -6 -11 -6t-11.5 4.5t-5.5 11.5v2q14 32 27.5 63t27.5 63q27 66 52.5 132t48.5 135q18 56 32.5 113t30.5 114q8 28 16.5 57t20.5 56q3 8 13 8 q5 0 11 -4.5t6 -9.5z" />
<glyph unicode="}" horiz-adv-x="284" d="M335 677q0 -14 -5 -28.5t-11.5 -29.5t-14 -29.5t-12.5 -27.5q-5 -12 -14 -27.5t-17 -32t-14 -32t-6 -27.5q0 -15 8.5 -21.5t18 -10.5t18 -7t8.5 -10q0 -2 -2 -8q1 -1 1 -4q0 -8 -6 -12q-26 -15 -44.5 -26t-40.5 -33q-6 -6 -10.5 -18t-7.5 -25.5t-5 -27t-3 -22.5 q-5 -36 -11 -71t-20 -69q-7 -17 -16.5 -35t-23 -32t-30 -23t-37.5 -9q-8 0 -13 3.5t-5 11.5q0 5 3 9.5t7 5.5q5 2 9.5 2.5t9.5 2.5q23 9 35 33t20 46q10 32 13.5 65t8.5 66q2 15 3 29.5t3 29.5q6 42 33.5 70t65.5 40q-35 20 -35 58q0 17 13.5 48.5t29 66.5t29 67.5 t13.5 52.5q0 13 -4.5 20t-10 11.5t-10 9t-4.5 13.5q0 14 16 14q32 0 49.5 -24t17.5 -53z" />
<glyph unicode="~" horiz-adv-x="700" d="M741 399q0 -4 -4 -8q-23 -26 -62 -41.5t-74 -15.5q-41 0 -77.5 15.5t-72 34.5t-72 34.5t-76.5 15.5q-46 0 -87 -16.5t-81 -37.5q-2 -1 -6 -1q-6 0 -11 6t-5 11q0 3 2 7q15 21 36.5 37t46.5 27t51 16.5t52 5.5q32 0 58.5 -7.5t55.5 -22.5q20 -11 39.5 -21t39.5 -21 q27 -15 57 -28.5t62 -13.5q31 0 56 11t49 28q4 2 7 2q6 0 11 -5.5t5 -11.5z" />
<glyph unicode="&#xa1;" horiz-adv-x="236" d="M256 741q0 -17 -3 -28t-24 -11q-10 0 -19 7t-9 18q0 8 6 14v1q-1 3 -1 8q7 5 9.5 11t13.5 6q9 0 18 -8t9 -18zM236 541q0 -54 -9.5 -106.5t-19.5 -105.5q-11 -57 -22.5 -114t-22.5 -114q-4 -19 -7.5 -37.5t-6.5 -38.5q-2 -8 -3 -16.5t-3 -16.5q-2 -9 -13 -9 q-5 0 -10.5 3.5t-5.5 8.5q0 20 1.5 39.5t3.5 38.5q7 67 17.5 133t21.5 132q8 48 14 96l12 96q1 8 2.5 21t3.5 26.5t4 25.5t4 19q4 11 17 11q11 0 14 -10q5 -19 6.5 -40.5t1.5 -41.5zM223 752l-1 2v-3q1 0 1 1z" />
<glyph unicode="&#xa2;" horiz-adv-x="331" d="M372 530q0 -9 -8 -14q-5 -2 -9.5 -4t-9.5 -4q-28 -13 -50 -27q-14 -51 -28.5 -101.5t-28.5 -101.5q-12 -42 -22.5 -84t-20.5 -85q16 3 31.5 13t29 23.5t25.5 28t21 26.5q5 6 9 12.5t9 11.5q3 5 9 5t11.5 -4.5t5.5 -10.5q0 -2 -4 -9.5t-9 -15.5t-10 -15.5l-7 -10.5 q-24 -37 -54.5 -65t-76.5 -33q-4 -14 -7.5 -35t-8.5 -33q-5 -10 -14 -10q-7 0 -10 3.5t-4 8.5t-1 10.5v10.5q0 28 3 55q-35 21 -48 56.5t-13 73.5q0 48 13 95.5t37 89.5t58.5 76.5t78.5 55.5q5 17 10 35t10 35q2 8 4 15.5t5 15.5t12 8q4 0 9.5 -4t5.5 -9t-2 -16t-5 -23.5 t-6 -24t-4 -17.5q12 4 25 6.5t25 2.5q6 0 10 -5.5t4 -10.5zM244 441q-50 -46 -81 -107t-31 -129q0 -20 4 -41t16 -37q8 42 20 82t25 81q11 38 23 75.5t24 75.5z" />
<glyph unicode="&#xa3;" horiz-adv-x="466" d="M497 109q0 -5 -3 -8q-17 -20 -38.5 -32.5t-46.5 -20.5t-51 -11t-50 -3q-20 0 -39 2t-39 4q-50 7 -99 9.5t-100 2.5q-6 -8 -12 -8t-12 6.5t-4 13.5q-3 3 -3 7q0 8 7.5 12t14.5 6q35 48 61.5 102t50.5 109q-5 -1 -8.5 -1h-7.5q-8 0 -17.5 1t-18 4.5t-14.5 9.5t-6 15 q0 10 12 15.5t27.5 7.5t31 2h22.5h3q13 28 32 68.5t44.5 77t57 62.5t68.5 26q42 0 66 -27.5t24 -68.5q0 -6 -2 -16t-6 -20t-9.5 -17.5t-12.5 -7.5t-11.5 6.5t-4.5 12.5q0 5 2 11.5t2 13.5q0 19 -11.5 39t-32.5 20q-4 0 -7.5 -1t-6.5 -2q-23 -8 -43.5 -29t-38 -46.5 t-32 -52.5t-24.5 -48q17 -1 32.5 -1.5t31.5 -1.5q3 -3 6.5 -7.5t3.5 -9.5q0 -9 -8 -13q-8 -3 -20 -5.5t-24.5 -4.5t-24 -3.5t-20.5 -2.5q-26 -53 -53 -104.5t-62 -98.5q9 1 18 1.5t18 0.5q28 0 56.5 -3.5t56.5 -8t56 -8t57 -3.5q38 0 73.5 9t66.5 34q1 0 2 0.5t2 0.5 q5 0 11 -5.5t6 -11.5z" />
<glyph unicode="&#xa4;" horiz-adv-x="431" d="M462 105q0 -7 -6 -12.5t-12 -5.5h-3q-11 5 -23.5 14.5t-24.5 21t-23 23t-19 20.5q-26 -26 -58 -44.5t-69 -18.5q-27 0 -48 10q-15 -23 -30.5 -48.5t-32.5 -47.5q-3 -5 -10 -5q-5 0 -11.5 4.5t-6.5 9.5q0 2 1.5 7.5t1.5 7.5q8 29 20.5 57t27.5 54q-22 36 -22 76 q0 21 7 42.5t19 42t26.5 39t29.5 32.5q-19 28 -37.5 55.5t-37.5 54.5q-8 12 -20 27t-18 26l-1 3q0 6 5.5 12t11.5 6t25 -21.5t41.5 -48.5t41.5 -52t25 -33q5 3 15.5 9.5t22.5 13t23 11t16 4.5q6 0 10.5 -6t4.5 -11q0 -7 -8 -12q-9 -5 -19 -9.5t-20 -10.5q-38 -25 -68 -61.5 t-44 -79.5q-5 -15 -5 -30q0 -14 4.5 -28t13 -25.5t21 -19t28.5 -7.5q11 0 19.5 4t18.5 9q42 24 66.5 61.5t38.5 82.5q6 19 10.5 39.5t4.5 40.5t-10 30t-22.5 16t-22.5 10.5t-10 13.5q0 5 4 11t9 6q7 0 14 -1t14 -3q12 17 24.5 34.5t24.5 35.5l10 16t11 15q3 5 9 5t12 -5 t6 -11q0 -3 -8 -18t-18.5 -33t-20 -34.5t-12.5 -20.5q23 -15 30.5 -36.5t7.5 -47.5q0 -20 -4 -41t-11.5 -42t-17 -41t-19.5 -36q4 -5 16.5 -21t26 -34t24 -33t10.5 -18z" />
<glyph unicode="&#xa5;" horiz-adv-x="474" d="M556 615q0 -4 -3 -7q-30 -45 -52.5 -88.5t-40.5 -87.5t-33 -90.5t-29 -97.5q36 0 74 -3q3 -3 6.5 -8t3.5 -9q0 -9 -8 -13q-8 -3 -19.5 -5.5t-23.5 -4.5t-23.5 -3.5t-20.5 -2.5h11q36 0 74 -3q3 -3 6.5 -7.5t3.5 -9.5q0 -9 -8 -13q-9 -3 -23 -6t-29 -5.5t-29 -4t-24 -2.5 q-11 -30 -26 -56t-35.5 -44.5t-47.5 -29.5t-61 -11q-27 0 -52 7.5t-44 22.5t-30.5 37t-11.5 51q0 30 11 59.5t29 55.5t42 47.5t50 33.5q2 1 5 1q4 0 6 -1v3q0 27 7 64t18.5 75t25.5 73.5t26 59.5q-8 -3 -14.5 -6.5t-13.5 -7.5q-20 -12 -40 -27.5t-30 -37.5q-2 -5 -2.5 -8.5 t-2.5 -7.5q-3 -8 -12 -8q-8 0 -13 5t-5 13q0 37 24.5 66t53.5 48q24 16 48.5 29t53.5 17q3 3 8 3q6 0 12 -4.5t6 -11.5q0 -4 -8.5 -29.5t-19.5 -56t-21 -58.5t-13 -37q-18 -47 -30 -98q-3 -15 -5.5 -30.5t-2.5 -30.5q0 -8 1.5 -20.5t12.5 -12.5q5 0 9.5 2t9.5 4 q24 12 45 33.5t38 42.5q2 3 5.5 7.5t5.5 7.5q7 15 12 31t11 31q22 52 53 102t73 86q6 4 9 4q6 0 11.5 -5t5.5 -12zM354 284q-12 -12 -29 -25t-35 -19q15 3 30.5 3h22.5zM312 139q-7 0 -16.5 1.5t-17.5 4.5t-14 9t-6 15q0 11 11.5 15.5t19.5 6.5q-11 3 -21 8t-10 19 q0 7 5 11.5t13 6.5h-10q-29 0 -42 15.5t-17 38.5q-8 -5 -15.5 -10t-15.5 -11q-14 -12 -27.5 -28.5t-23.5 -34.5t-16 -37.5t-6 -38.5q0 -43 26.5 -61t65.5 -18q47 0 73.5 24.5t43.5 63.5z" />
<glyph unicode="&#xa6;" horiz-adv-x="257" d="M329 714q0 -22 -8.5 -61.5t-20 -81.5t-24.5 -80.5t-22 -57.5q-4 -7 -10 -7q-3 0 -11 6t-8 8q0 11 3 24.5t5 24.5q5 29 11 58.5t12 58.5q4 17 6.5 34t6.5 34q1 6 5 18t9 24.5t11.5 22t13.5 9.5q4 0 11 -4t8 -7q2 -5 2 -11.5v-11.5zM202 287q0 -17 -6.5 -37.5t-12.5 -36.5 q-8 -17 -16 -33t-16 -33q-18 -38 -38.5 -78.5t-44.5 -75.5q-3 -5 -9 -5q-2 0 -10 6.5t-8 9.5q0 2 6 18.5t15 40t20 50.5t21 52t18 44t11 26q2 5 8 16t13.5 22.5t15.5 20t14 8.5q3 0 11 -6t8 -9z" />
<glyph unicode="&#xa7;" horiz-adv-x="415" d="M559 748q0 -7 -7 -11q-10 -7 -24.5 -12t-30 -8.5t-31 -6t-27.5 -3.5q-26 -3 -52 -4.5t-51 -9.5q-17 -5 -27.5 -16t-10.5 -30q0 -17 12.5 -32t30.5 -30t40 -31t40 -34.5t30.5 -40t12.5 -47.5q0 -29 -14 -55.5t-34 -46.5q-31 -32 -71.5 -48t-84.5 -14q15 -12 31.5 -26 t30 -30t22.5 -34.5t9 -40.5q0 -26 -13.5 -50.5t-30.5 -44.5q-29 -33 -68.5 -52t-83.5 -19q-31 0 -61 10t-53.5 29t-38 46t-14.5 61q0 27 12 60t30 54q5 5 10 5q6 0 11 -5t5 -11q0 -2 -5 -11t-11 -22.5t-11 -30t-5 -33.5q0 -25 11 -45t28.5 -33.5t40 -21t45.5 -7.5 q38 0 67.5 15t53.5 43q11 14 20.5 29t9.5 34q0 14 -6 24.5t-16 20.5q-23 23 -48.5 43t-51.5 40q-23 17 -36 41.5t-13 53.5q0 15 6 32.5t17 28.5q5 4 9.5 7t9.5 6q30 17 60.5 23t64.5 6h56q12 0 24 0.5t24 2.5q-17 22 -43.5 41.5t-52 40.5t-44 45t-18.5 56q0 16 6 32t16.5 29 t24.5 22.5t30 13.5q29 7 57.5 8.5t57.5 1.5q27 1 52.5 3.5t52.5 6.5h2q7 0 11.5 -5.5t4.5 -12.5zM416 430v4q-29 -11 -59.5 -15t-60.5 -6q-13 -2 -32 -4t-36.5 -7.5t-30 -16.5t-12.5 -29q0 -12 6.5 -22.5t14.5 -18.5q24 -10 55 -10q35 0 67 14.5t55 40.5q12 14 23 32t10 38z " />
<glyph unicode="&#xa8;" d="M668 660q0 -4 -2 -7t-4 -7l-1 -1q2 -6 2 -8q-7 -5 -9.5 -11t-13.5 -6q-10 0 -19 8t-9 18q0 17 3.5 28t24.5 11q9 0 18.5 -7t9.5 -18zM580 660q0 -6 -5 -14h-1v-1q1 -3 1 -8q-6 -5 -9 -11t-14 -6q-9 0 -18 8t-9 18q0 17 3 28t24 11q10 0 19 -7t9 -18z" />
<glyph unicode="&#xa9;" horiz-adv-x="576" d="M617 412q0 -68 -20.5 -132t-60 -114t-97 -80.5t-131.5 -30.5q-58 0 -112 21q-29 12 -52 32t-39 46t-24.5 56t-8.5 61q0 60 19.5 115.5t54 102.5t81.5 83t101 59q2 1 6 1q12 8 33.5 10.5t30.5 2.5q45 0 85 -20t69.5 -53t47 -75t17.5 -85zM562 410q0 37 -14.5 72.5 t-39.5 63t-58.5 44.5t-71.5 17q-9 0 -18 -2t-18 -1h-1l-2 -1q-17 -11 -34.5 -19.5t-34.5 -21.5q-33 -24 -61 -55t-49 -67t-32.5 -76t-11.5 -82v-3q1 -86 53.5 -130t135.5 -44q64 0 112 26t80 68.5t48.5 97.5t16.5 113zM458 532q0 -9 -8 -12q-12 -6 -24 -11t-24 -12 q-48 -29 -84 -74.5t-50 -100.5q-7 -25 -7 -56q0 -8 1.5 -21.5t6 -26t12 -21.5t19.5 -9q19 0 35 10t29.5 25t25 31.5t22.5 28.5q5 5 10 5t10 -4.5t5 -9.5q0 -3 -2 -7q-13 -20 -26.5 -41t-30.5 -38t-38 -27.5t-48 -10.5h-5q-38 16 -53.5 47t-15.5 69q0 32 8 66q7 33 22 64.5 t36.5 58.5t48.5 48t60 33q11 5 25 8t27 3q5 0 9 -5t4 -10z" />
<glyph unicode="&#xaa;" horiz-adv-x="227" d="M329 462q-5 -12 -13 -28.5t-18.5 -31.5t-23.5 -25.5t-28 -10.5q-10 0 -22 7.5t-12 18.5q-30 -21 -71 -26q-17 7 -28 19t-11 32q0 30 15.5 59t34.5 52q23 29 57 52t69 34l2 1q4 0 9.5 -7t5.5 -11q0 -7 -6 -10l-7 -4q5 -2 9.5 -6.5t4.5 -7.5q0 -6 -2 -16.5t-4.5 -21.5 t-5.5 -21t-5 -17q-2 -5 -4 -11l-4 -12q-2 -9 -3 -18.5t-3 -19.5v1q11 11 20.5 22t19.5 22q2 2 5 2q6 0 12.5 -5t6.5 -12zM262 570q-22 -14 -40 -29.5t-35 -39.5q-11 -17 -22.5 -38.5t-11.5 -41.5q0 -3 -4 -5q22 6 39 25.5t30.5 43.5t24 47.5t19.5 37.5z" />
<glyph unicode="&#xab;" horiz-adv-x="309" d="M370 459q-13 -20 -30 -36t-34.5 -31t-33.5 -30.5t-27 -32.5q2 -17 16.5 -38.5t33.5 -43t38.5 -42t31.5 -33.5l1 -3q0 -7 -5.5 -13t-11.5 -6q-3 0 -17 10.5t-30 24t-30 26t-17 16.5q-9 10 -18.5 19t-17.5 20q-11 14 -17.5 29t-6.5 33q0 5 0.5 9t1.5 9q26 45 66 81t88 54h2 q8 0 12.5 -7.5t4.5 -14.5zM247 467q-14 -20 -31 -36.5t-34 -31.5t-33 -30t-27 -32q2 -17 16.5 -38.5t33.5 -43.5t38 -42t31 -33q2 -2 2 -4q0 -6 -5.5 -12.5t-12.5 -6.5q-3 0 -17 10.5t-30 24t-30 26t-17 16.5q-8 11 -18 20t-18 20q-23 28 -23 61v9.5t1 9.5q26 45 66 80.5 t89 54.5h2q8 0 12.5 -7.5t4.5 -14.5z" />
<glyph unicode="&#xac;" horiz-adv-x="603" d="M592 273q0 -13 -1 -29t-2.5 -32.5t-4 -32t-5.5 -27.5q-3 -9 -12 -9q-3 0 -10 4t-8 7t-2 21.5t-2 41t-2 43.5t-2 28q-2 21 -5 42t-5 42q-54 -5 -108 -7.5t-109 -3.5q-23 0 -45 -1t-44 -1q-11 0 -26.5 0.5t-32 2.5t-31.5 5t-24 8q-9 4 -9 15q0 4 2.5 8.5t7.5 6.5q9 3 22 5 t27 2.5t27.5 1t23.5 0.5q26 0 51 -1t51 -1q55 -1 109.5 -2.5t109.5 -4.5q2 3 6 6t9 3h1q1 0 1 -0.5t1 -0.5q18 -13 26.5 -29t11.5 -34.5t3 -38v-38.5z" />
<glyph unicode="&#xad;" horiz-adv-x="503" d="M564 392q0 -5 -3 -9.5t-8 -5.5q-6 -2 -15 -2.5t-19 -1.5t-19.5 -1.5t-15.5 -0.5q-43 -3 -85.5 -4.5t-84.5 -2.5q-23 0 -45 -1t-45 -1q-11 0 -26.5 0.5t-32 2.5t-31 5t-24.5 8q-4 2 -6 6.5t-2 8.5t2.5 8.5t6.5 6.5q8 3 21.5 5t28 2.5t28.5 1t23 0.5q26 0 51 -1t51 -1 q42 0 84.5 -1.5t84.5 -3.5q14 0 36 -0.5t34 -2.5q11 -4 11 -15z" />
<glyph unicode="&#xae;" horiz-adv-x="597" d="M627 424q0 -68 -20.5 -132t-60 -114t-97 -80.5t-130.5 -30.5q-29 0 -57.5 5t-54.5 16q-30 12 -53 32t-39 46t-24.5 56t-8.5 61q0 60 19.5 115.5t54 102.5t81.5 83t102 59q1 1 5 1q6 4 15 7t18.5 4.5t18 2t13.5 0.5q45 0 84.5 -20.5t69 -53.5t47 -75t17.5 -85zM474 499 q0 9 -7.5 12t-14.5 3q-21 0 -45.5 -13.5t-40.5 -25.5q-6 -16 -11.5 -31.5t-11.5 -32.5q34 9 68.5 25.5t55.5 45.5q2 4 4.5 8t2.5 9zM572 423q0 37 -14.5 72.5t-39.5 63t-58.5 44.5t-71.5 17q-9 0 -18 -2t-17 -2h-2h-2q-17 -11 -34.5 -20t-34.5 -21q-33 -24 -61 -55.5 t-49 -67.5t-32.5 -75.5t-11.5 -81.5v-3q1 -23 5 -43.5t12 -37.5q3 7 9 8q8 2 16 3.5t16 5.5q20 10 35 26.5t26.5 36.5t20.5 41t16 41q11 29 19.5 58.5t21.5 57.5q-13 -5 -23 -12q-17 -11 -34.5 -24t-26.5 -33q-2 -5 -2.5 -8.5t-2.5 -8.5q-4 -7 -12 -7q-4 0 -9 4t-6 8v-2v5 q-1 17 5 32t16 28t23 24t26 19q8 5 20.5 12.5t25.5 14t26 11.5t22 5q6 0 12 -5.5t6 -10.5q0 -1 -2 -5.5t-2 -6.5q15 10 33.5 17.5t37.5 7.5q23 0 41.5 -14t18.5 -39q0 -23 -13.5 -44t-33.5 -37.5t-43.5 -27.5t-43.5 -15q14 -17 22 -39q3 -9 7 -27t9 -37t11 -34t14 -18 q3 -1 9 -1q9 0 19 3.5t19 7t16 7t9 3.5q5 0 8 -3q23 40 35 87t12 97zM495 197l-2 -1q-10 -5 -21 -8.5t-23 -3.5q-31 0 -45.5 22.5t-24 53.5t-19.5 62t-32 49q-11 -29 -26 -60.5t-35.5 -58t-48.5 -44t-64 -17.5q24 -37 65.5 -55.5t95.5 -18.5q58 0 103 21.5t77 58.5z" />
<glyph unicode="&#xaf;" d="M708 679q0 -3 -2 -7t-6 -5q-26 -8 -54.5 -12.5t-56.5 -6.5q-12 -1 -24 -2.5t-25 -1.5q-7 0 -16.5 1t-18 4.5t-14.5 9.5t-6 15q0 10 12 15.5t27.5 7.5t30.5 2h22h43q39 0 78 -3q4 -3 7 -7.5t3 -9.5z" />
<glyph unicode="&#xb0;" horiz-adv-x="187" d="M299 551q0 -32 -13.5 -58t-42.5 -40q-17 -9 -34 -9q-14 0 -27.5 4.5t-24.5 13.5t-17.5 21t-6.5 27v6q1 29 16 51.5t40 36.5q2 1 8.5 4t9.5 4q5 4 12.5 5.5t12.5 1.5q27 0 47 -21t20 -47zM244 545q0 17 -7.5 24.5t-21.5 12.5q-15 -11 -26 -25.5t-11 -34.5q0 -27 26 -27 q20 0 30 16t10 34z" />
<glyph unicode="&#xb1;" horiz-adv-x="533" d="M52 35zM564 392q0 -5 -2.5 -9.5t-7.5 -5.5q-11 -3 -28.5 -3.5t-28.5 -1.5q-35 -2 -69 -4t-69 -3q0 -21 1 -42t1 -42q0 -11 -0.5 -26.5t-2.5 -31.5t-5 -31t-8 -25q-2 -4 -6.5 -6t-8.5 -2t-8.5 2t-6.5 7q-3 8 -5 21.5t-3 28t-1.5 28t-0.5 22.5q0 24 1 48l2 48 q-21 -1 -42 -1.5t-41 -0.5q-11 0 -27 0.5t-32 2.5t-31 5t-24 8q-9 4 -9 15q0 4 2.5 8.5t7.5 6.5q7 3 20.5 5t28 2.5t28.5 1t23 0.5q24 0 48 -0.5t48 -1.5q1 35 2 69t3 69q1 11 1 29t2 28q2 5 6 7.5t9 2.5t9 -2.5t6 -7.5q3 -11 3.5 -28t1.5 -29q2 -35 3.5 -69t3.5 -69 q35 -1 69.5 -2t69.5 -3q11 -1 28.5 -1t27.5 -2q5 -2 8 -6t3 -9zM514 65q0 -5 -2.5 -9.5t-7.5 -5.5q-12 -3 -34 -4t-36 -2q-42 -3 -84.5 -4.5t-85.5 -2.5q-23 0 -45 -1t-44 -1q-11 0 -26.5 0.5t-32 2.5t-31 5t-24.5 8q-4 2 -6.5 6.5t-2.5 8.5t2.5 8.5t7.5 6.5q8 3 21 5 t27.5 2.5t28.5 1t23 0.5q26 0 51 -1t51 -1q43 0 85 -1.5t85 -3.5h16.5t19 -0.5t18.5 -1t15 -1.5q11 -4 11 -15z" />
<glyph unicode="&#xb2;" horiz-adv-x="355" d="M437 470q0 -4 -1 -6q-11 -22 -35.5 -33.5t-48.5 -11.5q-19 0 -39.5 6t-39 13.5t-33.5 14t-23 6.5q-11 0 -19.5 -7t-16.5 -15h-10l-3 -3l-35 29l7 8v-4l5 6h-4q17 17 33 35t33 36q20 21 42.5 39.5t45.5 37.5q9 7 21.5 19t24 25.5t19.5 27.5t8 26q0 13 -11 17t-22 4 q-19 0 -38.5 -8t-32.5 -22q-3 -4 -5 -8l-4 -8q-6 -6 -11 -6q-4 0 -10.5 5t-6.5 10q0 4 1 5q11 23 31.5 40t44.5 25q6 2 12 3t12 3q5 1 9.5 2t9.5 1q13 0 25 -6t21 -16t14 -23t5 -26q0 -10 -2 -16.5t-7 -14.5q-18 -33 -36.5 -54.5t-38.5 -39t-41 -35t-43 -42.5q14 -5 30 -12 l32 -14t32 -12t30 -5q22 0 33.5 10t18.5 10q6 0 11.5 -5t5.5 -11z" />
<glyph unicode="&#xb3;" horiz-adv-x="314" d="M416 571q0 -30 -12 -59t-33 -52.5t-48.5 -38t-58.5 -14.5q-24 0 -44.5 9.5t-37 25t-29 35.5t-19.5 41l-1 2q0 5 7 10.5t11 5.5q5 0 10 -6q9 -12 18.5 -26t21 -25t25.5 -18.5t31 -7.5q21 0 40 10t33.5 26.5t23 37t8.5 40.5q0 17 -9.5 32t-29.5 15q-4 0 -7.5 -0.5 t-7.5 -0.5h-10q-3 1 -7.5 9t-4.5 11q0 6 4 9q7 5 19 13t24 17.5t20.5 20t8.5 19.5v6.5t-5 2.5q-30 0 -53 -8.5t-44 -29.5q-1 -1 -2 -1t-2 -1q-6 0 -12.5 5.5t-6.5 12.5v3q9 19 32 35.5t43 23.5q21 8 41 8q25 0 42.5 -15t17.5 -41q0 -41 -30 -71q18 -12 25.5 -31.5t7.5 -39.5 z" />
<glyph unicode="&#xb4;" d="M670 690q-9 -22 -27 -34q-7 -5 -14 -8.5t-15 -8.5q-33 -22 -73 -40q-6 0 -12 6.5t-6 12.5q0 1 0.5 2t0.5 2q18 22 40 41.5t45 36.5q16 11 35 11q10 0 17.5 -5t8.5 -16z" />
<glyph unicode="&#xb5;" horiz-adv-x="364" d="M425 506q0 -8 -2 -18t-4 -18q-9 -51 -23 -100t-40 -94q-10 -17 -23 -37t-29 -36.5t-35 -27.5t-41 -11q-30 0 -50 18.5t-32 43.5q-8 -29 -14.5 -58.5t-11.5 -59.5q0 -5 -1 -13.5t-2 -18t-2 -17.5t-1 -10q-2 -5 -7 -8t-10 -3q-7 0 -10.5 6t-4.5 13.5t-0.5 15.5t0.5 13 q0 59 10 116.5t24 114.5q6 28 12 55.5t14 54.5q3 12 8.5 26.5t12.5 29t15 28t16 22.5q4 4 9 4q3 0 11 -6t8 -9q0 -5 -1.5 -10.5t-2.5 -10.5q-11 -51 -25.5 -99t-27.5 -97q-2 -7 -3.5 -13.5t-3.5 -14.5q4 -8 11 -20t15.5 -23t18 -19t20.5 -8q8 0 11 2q13 5 24.5 15.5t21 23.5 t18 26.5t14.5 25.5q14 25 22 53.5l16 57t18.5 55.5t28.5 50q3 5 9 5q4 0 11.5 -5.5t7.5 -9.5z" />
<glyph unicode="&#xb6;" horiz-adv-x="491" d="M583 560q0 -7 -19 -21t-43 -28t-46.5 -26t-30.5 -16q-24 -82 -44.5 -171.5t-20.5 -175.5q0 -14 1 -32.5t6 -35.5t15.5 -29t30.5 -12q17 0 39 9.5t42.5 21.5t35.5 21.5t18 9.5q7 0 11.5 -5.5t4.5 -10.5q0 -4 -4 -10q-12 -11 -31 -24t-40.5 -24.5t-42.5 -19.5t-37 -8 q-19 0 -35 8t-28 21.5t-19 30.5t-9 35q-2 19 -4 37t-2 37q0 76 16 152.5t35 150.5q-12 -5 -24 -8.5t-24 -5.5q-20 -73 -38 -148t-18 -151q0 -28 4.5 -53.5t12.5 -51.5v-2q0 -7 -5.5 -12t-11.5 -5t-11 7q-8 13 -13 32t-9 39.5t-5.5 40.5t-1.5 36q0 66 14.5 130.5t28.5 128.5 q-6 -1 -11.5 -1h-10.5q-11 0 -21.5 1t-21.5 3q-37 7 -60 35.5t-23 65.5q0 10 3 21q11 63 48.5 106.5t94.5 68.5q26 12 54 19t56 8q2 4 6.5 12t9.5 16.5t10 14.5t10 6t11.5 -5t6.5 -10q0 -1 -1.5 -6.5t-3 -12t-3.5 -12.5t-2 -7q24 -6 44 -20q7 15 16 34t19 33q4 6 11 6 t12.5 -4t5.5 -12q0 -3 -5.5 -21t-14 -45t-18.5 -58t-19 -59.5t-16 -50.5t-9 -29q27 12 52 26t50 30q4 2 7 2q6 0 10.5 -5.5t4.5 -11.5zM462 692q-21 8 -42 8q-17 -55 -35.5 -109.5t-35.5 -110.5q11 3 23 6.5t23 7.5q14 51 30 100.5t37 97.5zM363 694q-30 -8 -61.5 -22.5 t-58 -36t-43 -50t-16.5 -63.5q0 -17 8.5 -27.5t21.5 -16.5t28 -8t28 -2h11.5t10.5 1q15 57 31.5 113.5t39.5 111.5z" />
<glyph unicode="&#xb7;" horiz-adv-x="178" d="M178 329q0 -8 -6 -14v-1q1 -3 1 -8q-7 -5 -9.5 -11t-13.5 -6q-9 0 -18 8t-9 18q0 17 3 28t24 11q10 0 19 -7t9 -18z" />
<glyph unicode="&#xb8;" d="M462 -147q-5 -19 -16 -34t-26.5 -26t-33 -19.5t-34.5 -13.5q-1 0 -6 -1.5l-10 -3t-9 -2.5l-5 -1q-5 0 -9 6.5t-2 11.5q2 7 8 10q10 4 25 11t29.5 15.5t26 19.5t14.5 23q3 15 -6 28t-20 21q-14 10 -32 13t-38 1q-5 2 -13.5 10t-12.5 12l1 6q5 19 14.5 47t22.5 46 q2 3 7.5 5.5t9.5 2.5q3 0 7.5 -2.5t5.5 -6.5q1 -15 -1.5 -32t-4.5 -32q21 -2 42.5 -11t38 -24t25 -35.5t2.5 -44.5z" />
<glyph unicode="&#xb9;" horiz-adv-x="150" d="M284 753q0 -8 -5 -16q-2 -32 -12 -61t-19 -59q-20 -63 -42 -126q5 -4 9.5 -10t4.5 -12q0 -8 -7.5 -15.5t-14.5 -9.5q-8 -2 -16 -2.5t-16 -0.5q-4 0 -11.5 0.5t-14.5 2.5t-12 5t-5 9q0 4 2 9t4 9q11 5 21 8.5t21 7.5q5 35 12 70t16 69q5 20 9.5 39t11.5 38h-5 q-2 -1 -4.5 -0.5t-4.5 0.5q-2 3 -6 10t-4 10q8 12 18.5 20.5t16.5 17.5q5 6 10.5 8t13.5 2h8l18 -11q3 -6 3 -12z" />
<glyph unicode="&#xba;" horiz-adv-x="187" d="M309 545q0 -13 -2 -25.5t-5 -24.5q-11 -39 -29 -68t-51 -52q-21 -15 -45 -15q-19 0 -33 8t-23.5 20.5t-14 29t-4.5 33.5q0 24 10.5 48.5t27.5 45.5t38.5 37.5t43.5 23.5l2 1q1 0 1.5 -0.5t1.5 -0.5q0 4 4 10.5t9 6.5q23 0 43 -15t24 -38q2 -7 2 -13v-12zM259 559 q0 16 -7 22t-15 11q1 -1 1 -3q0 -7 -6 -10q-31 -19 -52.5 -45t-29.5 -62q-2 -10 -2 -17q0 -6 1.5 -13.5t5 -15t8.5 -12.5t13 -5q5 0 9.5 2.5t9.5 5.5q23 17 35 41t19 51q3 12 6.5 24.5t3.5 25.5z" />
<glyph unicode="&#xbb;" horiz-adv-x="319" d="M360 335q0 -33 -23 -61q-9 -11 -18.5 -20t-17.5 -20q-3 -4 -17 -16.5t-30 -26t-30 -24t-17 -10.5q-7 0 -12.5 6.5t-5.5 12.5q0 1 0.5 2t0.5 2q12 13 31.5 33t38.5 42t33.5 43.5t16.5 38.5q-11 17 -27 32.5t-33 30.5t-34 31t-30 35q0 1 -0.5 1.5t-0.5 1.5q0 6 5 13t12 7h2 q49 -19 89 -54.5t66 -80.5q1 -5 1 -9.5v-9.5zM237 331q0 -18 -6.5 -33t-17.5 -29q-8 -10 -17.5 -19.5t-18.5 -19.5q-3 -4 -17 -16.5t-30 -26t-30 -24t-17 -10.5q-7 0 -12 6t-5 13v2q0 1 0.5 1t0.5 1q12 13 31.5 33t38.5 41.5t33.5 43t16.5 38.5q-11 18 -27 33t-33.5 30 t-34.5 31t-30 35q0 1 -0.5 2t-0.5 2q0 6 5.5 13t12.5 7q1 -1 2 -1q48 -18 88 -54t66 -80q1 -5 1.5 -9.5t0.5 -9.5z" />
<glyph unicode="&#xbc;" horiz-adv-x="653" d="M275 753q0 -8 -5 -16q-2 -32 -12 -61t-19 -59q-20 -63 -42 -126q5 -4 9.5 -10t4.5 -12q0 -8 -7.5 -15.5t-14.5 -9.5t-15.5 -2.5t-16.5 -0.5q-4 0 -11.5 0.5t-14.5 2.5t-12 5t-5 9q0 4 2 9t4 9q11 5 21 8.5t21 7.5q5 35 12 70t16 69q5 20 9.5 39t11.5 38h-5q-2 -1 -4 -0.5 t-4 0.5q-2 3 -6.5 10t-4.5 10q8 12 18.5 20.5t16.5 17.5q5 6 10.5 8t13.5 2h8l18 -11q3 -6 3 -12zM653 186q-11 -23 -31.5 -39t-44.5 -23q-5 -16 -11 -34t-13 -37t-14 -36.5t-14 -32.5q-4 -7 -10 -7q-3 0 -11 6t-8 9q0 8 2.5 17t4.5 17q5 25 10.5 49t11.5 48q-23 6 -46 6 q-14 0 -28.5 -2t-28.5 -2q-5 0 -12 6t-7 11q0 11 9 29t16 27q8 12 16 23l16 22q39 54 71 112h1q1 0 2 1q1 0 3 1q3 0 11.5 -6t8.5 -9q0 -1 -2 -8.5t-2 -9.5q-17 -56 -50 -109q-5 -8 -9.5 -15.5t-9.5 -15.5q14 -1 27.5 -5t27.5 -7q11 38 27.5 72.5t48.5 58.5q1 0 2 0.5t2 0.5 q6 0 13 -5t7 -12q0 -8 -5.5 -22.5t-12.5 -31t-14.5 -31.5t-10.5 -24q10 5 18 11t16 14q1 0 2 0.5t2 0.5q6 0 12.5 -5.5t6.5 -12.5zM547 710q0 -1 -2 -6.5t-4 -12t-4.5 -12t-2.5 -6.5q-33 -86 -78.5 -164.5t-94.5 -156.5q-94 -148 -206 -287q-19 -23 -38.5 -47t-39.5 -47 q-4 -4 -9 -4q-6 0 -11.5 4.5t-5.5 11.5q0 2 2 6q22 32 44.5 62.5t44.5 61.5q46 66 90 132t86 134q35 57 67 116t66 117q16 27 32.5 56t35.5 53q3 6 10 6t12.5 -5t5.5 -12z" />
<glyph unicode="&#xbd;" horiz-adv-x="691" d="M277 753q0 -8 -5 -16q-2 -32 -11.5 -61t-18.5 -59q-20 -63 -42 -126q5 -4 9.5 -10t4.5 -12q0 -8 -7.5 -15.5t-14.5 -9.5q-8 -2 -16.5 -2.5t-16.5 -0.5q-4 0 -11 0.5t-14 2.5t-12 5t-5 9q0 4 2 9t4 9q11 5 21 8.5t21 7.5q5 35 12 70t16 69q5 20 9 39t11 38h-5 q-2 -1 -4 -0.5t-4 0.5q-2 3 -6 10t-5 10q9 12 19.5 20.5t16.5 17.5q5 6 10.5 8t13.5 2h8l18 -11q2 -8 2 -12zM701 33q0 -2 -2 -6q-11 -22 -35.5 -33t-47.5 -11q-19 0 -39.5 6t-39.5 13.5t-34 13.5t-23 6q-11 0 -19 -7l-16 -14l-11 -1l-2 -3l-35 30l7 8v-4l4 5h-3 q17 18 33 35.5t33 35.5q20 22 42.5 40t45.5 37q9 7 21.5 19t24 25.5t19.5 27.5t8 27t-11 17t-22 4q-19 0 -38.5 -8.5t-32.5 -22.5q-3 -4 -5 -7.5t-5 -7.5q-4 -6 -10 -6q-5 0 -11.5 5t-6.5 10q0 1 2 5q11 23 31 40t44 25q7 2 13 3l12 2q5 2 9 3t9 1q13 0 25 -6.5t21 -16.5 t14.5 -23t5.5 -26q0 -9 -2.5 -16t-6.5 -15q-18 -33 -36.5 -54.5t-38.5 -39t-41 -34.5t-43 -42q14 -5 30 -12t32 -14.5t32 -12.5t30 -5q22 0 33.5 10t17.5 10t12 -4.5t6 -11.5zM598 710q0 -1 -2 -6.5t-4 -12t-4.5 -12t-2.5 -6.5q-33 -86 -78.5 -164.5t-94.5 -156.5 q-94 -148 -206 -287q-19 -23 -38.5 -47t-39.5 -47q-3 -4 -9 -4t-11.5 4.5t-5.5 11.5q0 3 3 6q22 32 44 62.5t44 61.5q46 66 90 132t86 134q36 57 67.5 116t65.5 117q16 27 32.5 56t35.5 53q4 6 10 6q7 0 12.5 -5t5.5 -12z" />
<glyph unicode="&#xbe;" horiz-adv-x="712" d="M416 571q0 -30 -12 -59t-33 -52.5t-48.5 -38t-58.5 -14.5q-24 0 -44.5 9.5t-37 25t-29 35.5t-19.5 41l-1 2q0 5 7 10.5t11 5.5q5 0 10 -6q9 -12 18.5 -26t21 -25t25.5 -18.5t31 -7.5q21 0 40 10t33.5 26.5t23 37t8.5 40.5q0 17 -9.5 32t-29.5 15q-4 0 -7.5 -0.5 t-7.5 -0.5h-10q-3 1 -7.5 9t-4.5 11q0 6 4 9q7 5 19 13t24 17.5t20.5 20t8.5 19.5v6.5t-5 2.5q-30 0 -53 -8.5t-44 -29.5q-1 -1 -2 -1t-2 -1q-6 0 -12.5 5.5t-6.5 12.5v3q9 19 32 35.5t43 23.5q21 8 41 8q25 0 42.5 -15t17.5 -41q0 -41 -30 -71q18 -12 25.5 -31.5t7.5 -39.5 zM668 710q0 -1 -2 -6.5t-4.5 -12t-4.5 -12t-3 -6.5q-32 -86 -77.5 -164.5t-94.5 -156.5q-48 -75 -99.5 -146.5t-106.5 -140.5q-20 -23 -39 -47t-39 -47q-4 -4 -9 -4q-6 0 -11.5 4.5t-5.5 11.5q0 2 2 6q22 32 44 62.5t44 61.5q46 66 90.5 132t86.5 134q35 57 67 116t66 117 q15 27 31.5 56t35.5 53q4 6 11 6t12.5 -5t5.5 -12zM712 186q-10 -23 -30.5 -39t-45.5 -23q-5 -16 -11 -34t-13 -37t-14 -36.5t-14 -32.5q-4 -7 -10 -7q-3 0 -11 6t-8 9q0 8 2.5 17t4.5 17q5 25 10.5 49t11.5 48q-23 6 -46 6q-14 0 -28 -2t-28 -2q-5 0 -12.5 6t-7.5 11t3 13 t6.5 16t8 15t7.5 12q8 12 16.5 23t16.5 22q19 27 36.5 55t33.5 57h1q1 0 2 1q1 0 3 1q3 0 11.5 -6t8.5 -9q0 -1 -2 -8.5t-2 -9.5q-16 -56 -50 -109q-5 -8 -9.5 -15.5t-9.5 -15.5q15 -1 28 -5t27 -7q11 38 27.5 72.5t48.5 58.5q1 0 2 0.5t2 0.5q6 0 13 -5t7 -12 q0 -8 -5.5 -22.5t-12.5 -31t-14 -31.5t-11 -24q10 5 18 11t16 14q1 0 2 0.5t2 0.5q6 0 12.5 -5.5t6.5 -12.5z" />
<glyph unicode="&#xbf;" horiz-adv-x="426" d="M368 732q0 -17 -3.5 -27.5t-23.5 -10.5q-10 0 -19.5 7t-9.5 17q0 5 2 8l4 6l1 2q-1 2 -1 8q6 5 8.5 10.5t13.5 5.5q10 0 19 -7.5t9 -18.5zM426 223q0 -50 -22 -93.5t-57.5 -76t-81 -51.5t-93.5 -19q-35 0 -65 11.5t-51.5 32t-33.5 50t-12 65.5q0 44 22.5 78t56 60.5 t72 47.5t71.5 41q14 8 28.5 18t26.5 21q20 20 39 49t19 58q0 20 -16 38t-33 24q1 -2 1 -6q0 -7 -5 -11.5t-11 -4.5q-10 0 -14.5 10.5t-4.5 18.5q0 14 9.5 22.5t23.5 8.5q18 0 35 -8.5t31 -22t23 -31t11 -34.5v-11q0 -19 -5.5 -38.5t-15.5 -38t-22.5 -34.5t-25.5 -29 q-26 -24 -58.5 -42.5t-66 -36t-64.5 -37.5t-54 -48q-23 -29 -23 -64q0 -54 32.5 -83t84.5 -29q40 0 79 16.5t70 44t49.5 64.5t18.5 79q0 9 -2 18.5t-2 18.5q0 14 16 14q9 0 13 -10q1 -4 2.5 -10.5t2.5 -14t1.5 -14.5t0.5 -11zM334 743q0 2 -1 3v-4z" />
<glyph unicode="&#xc0;" horiz-adv-x="660" d="M0 0zM793 505q0 -4 -3 -7q-21 -23 -48 -39.5t-58 -27t-63 -16t-62 -6.5q-17 -98 -35 -198t-18 -200q0 -29 3.5 -57.5t15 -51t33 -36t57.5 -13.5q6 0 11.5 1t11.5 1q7 0 11 -5t4 -12t-7.5 -11.5t-17 -6.5t-19.5 -3t-15 -1q-43 0 -70.5 17.5t-43.5 46t-22.5 64t-6.5 70.5 q0 48 5.5 98t14 100.5t18.5 100.5t19 97l-42 2t-42 1h-21t-21 -1q-17 -27 -35.5 -53t-37.5 -52q-35 -48 -75 -95.5t-85.5 -88.5t-97.5 -73t-112 -48q-17 -5 -36.5 -8.5t-37.5 -3.5q-6 0 -9.5 5t-3.5 10q0 12 10 14q22 5 42 9.5t41 12.5q52 20 97 52.5t84.5 72t74.5 83.5 t67 88q12 17 23 33t22 33q-39 -8 -68 -22.5t-61 -37.5q-2 -2 -7 -2t-10.5 5.5t-5.5 10.5t3 8q34 38 83.5 59.5t98.5 29.5q20 31 42 65.5t45.5 69t48.5 66t52 56.5q6 4 9 4h2q-1 15 -4.5 30.5t-11 28t-19.5 20.5t-30 8q-24 0 -49.5 -9t-48 -19.5t-38.5 -19t-20 -8.5 q-6 0 -10.5 5.5t-4.5 10.5q0 7 7 12q5 4 12 7.5t13 7.5q33 19 70.5 35t77.5 16q8 0 17 -2.5t16 -5.5q20 -9 33.5 -26t21 -37.5t10.5 -43t3 -42.5q0 -56 -6 -110.5t-15 -109.5q42 5 82.5 15.5t79.5 26.5q11 4 21 8.5t21 9.5h3q6 0 11.5 -5.5t5.5 -12.5zM545 669 q-13 -22 -33 -54.5t-39.5 -64t-35.5 -56.5t-21 -32q8 0 16.5 0.5t17.5 0.5q15 0 30.5 -1t30.5 -1h7q10 52 17.5 103.5t9.5 104.5zM630 889q0 -6 -5.5 -13t-11.5 -7t-21 7t-32.5 16t-32.5 18t-21 13q-8 5 -15.5 16.5t-7.5 21.5q0 5 5.5 12.5t10.5 7.5q21 0 39 -13 q7 -5 13 -10.5t13 -10.5q36 -25 65 -54q0 -1 0.5 -2t0.5 -2z" />
<glyph unicode="&#xc1;" horiz-adv-x="660" d="M0 0zM793 505q0 -4 -3 -7q-21 -23 -48 -39.5t-58 -27t-63 -16t-62 -6.5q-17 -98 -35 -198t-18 -200q0 -29 3.5 -57.5t15 -51t33 -36t57.5 -13.5q6 0 11.5 1t11.5 1q7 0 11 -5t4 -12t-7.5 -11.5t-17 -6.5t-19.5 -3t-15 -1q-43 0 -70.5 17.5t-43.5 46t-22.5 64t-6.5 70.5 q0 48 5.5 98t14 100.5t18.5 100.5t19 97l-42 2t-42 1h-21t-21 -1q-17 -27 -35.5 -53t-37.5 -52q-35 -48 -75 -95.5t-85.5 -88.5t-97.5 -73t-112 -48q-17 -5 -36.5 -8.5t-37.5 -3.5q-6 0 -9.5 5t-3.5 10q0 12 10 14q22 5 42 9.5t41 12.5q52 20 97 52.5t84.5 72t74.5 83.5 t67 88q12 17 23 33t22 33q-39 -8 -68 -22.5t-61 -37.5q-2 -2 -7 -2t-10.5 5.5t-5.5 10.5t3 8q34 38 83.5 59.5t98.5 29.5q20 31 42 65.5t45.5 69t48.5 66t52 56.5q6 4 9 4h2q-1 15 -4.5 30.5t-11 28t-19.5 20.5t-30 8q-24 0 -49.5 -9t-48 -19.5t-38.5 -19t-20 -8.5 q-6 0 -10.5 5.5t-4.5 10.5q0 7 7 12q5 4 12 7.5t13 7.5q33 19 70.5 35t77.5 16q8 0 17 -2.5t16 -5.5q20 -9 33.5 -26t21 -37.5t10.5 -43t3 -42.5q0 -56 -6 -110.5t-15 -109.5q42 5 82.5 15.5t79.5 26.5q11 4 21 8.5t21 9.5h3q6 0 11.5 -5.5t5.5 -12.5zM545 669 q-13 -22 -33 -54.5t-39.5 -64t-35.5 -56.5t-21 -32q8 0 16.5 0.5t17.5 0.5q15 0 30.5 -1t30.5 -1h7q10 52 17.5 103.5t9.5 104.5zM762 905q-9 -22 -27 -34q-7 -5 -14 -8.5t-15 -8.5q-33 -22 -73 -40q-6 0 -12 6.5t-6 12.5q0 1 0.5 2t0.5 2q18 22 40 41.5t45 36.5 q16 11 35 11q10 0 17.5 -5t8.5 -16z" />
<glyph unicode="&#xc2;" horiz-adv-x="660" d="M0 0zM793 505q0 -4 -3 -7q-21 -23 -48 -39.5t-58 -27t-63 -16t-62 -6.5q-17 -98 -35 -198t-18 -200q0 -29 3.5 -57.5t15 -51t33 -36t57.5 -13.5q6 0 11.5 1t11.5 1q7 0 11 -5t4 -12t-7.5 -11.5t-17 -6.5t-19.5 -3t-15 -1q-43 0 -70.5 17.5t-43.5 46t-22.5 64t-6.5 70.5 q0 48 5.5 98t14 100.5t18.5 100.5t19 97l-42 2t-42 1h-21t-21 -1q-17 -27 -35.5 -53t-37.5 -52q-35 -48 -75 -95.5t-85.5 -88.5t-97.5 -73t-112 -48q-17 -5 -36.5 -8.5t-37.5 -3.5q-6 0 -9.5 5t-3.5 10q0 12 10 14q22 5 42 9.5t41 12.5q52 20 97 52.5t84.5 72t74.5 83.5 t67 88q12 17 23 33t22 33q-39 -8 -68 -22.5t-61 -37.5q-2 -2 -7 -2t-10.5 5.5t-5.5 10.5t3 8q34 38 83.5 59.5t98.5 29.5q20 31 42 65.5t45.5 69t48.5 66t52 56.5q6 4 9 4h2q-1 15 -4.5 30.5t-11 28t-19.5 20.5t-30 8q-24 0 -49.5 -9t-48 -19.5t-38.5 -19t-20 -8.5 q-6 0 -10.5 5.5t-4.5 10.5q0 7 7 12q5 4 12 7.5t13 7.5q33 19 70.5 35t77.5 16q8 0 17 -2.5t16 -5.5q20 -9 33.5 -26t21 -37.5t10.5 -43t3 -42.5q0 -56 -6 -110.5t-15 -109.5q42 5 82.5 15.5t79.5 26.5q11 4 21 8.5t21 9.5h3q6 0 11.5 -5.5t5.5 -12.5zM545 669 q-13 -22 -33 -54.5t-39.5 -64t-35.5 -56.5t-21 -32q8 0 16.5 0.5t17.5 0.5q15 0 30.5 -1t30.5 -1h7q10 52 17.5 103.5t9.5 104.5zM721 883q0 -6 -5.5 -13t-11.5 -7l-3 1l-69 42q-3 1 -10 6t-15 10.5t-14.5 9.5t-7.5 4q-8 -7 -22.5 -18.5t-31 -22t-33 -18t-26.5 -7.5 q-5 0 -11.5 7t-6.5 13v1q0 1 0.5 1t0.5 1q5 11 21.5 27t37 30.5t40.5 25t32 10.5q15 0 23 -7q30 -21 57.5 -44t53.5 -48v-2q0 -1 1 -2z" />
<glyph unicode="&#xc3;" horiz-adv-x="660" d="M0 0zM793 505q0 -4 -3 -7q-21 -23 -48 -39.5t-58 -27t-63 -16t-62 -6.5q-17 -98 -35 -198t-18 -200q0 -29 3.5 -57.5t15 -51t33 -36t57.5 -13.5q6 0 11.5 1t11.5 1q7 0 11 -5t4 -12t-7.5 -11.5t-17 -6.5t-19.5 -3t-15 -1q-43 0 -70.5 17.5t-43.5 46t-22.5 64t-6.5 70.5 q0 48 5.5 98t14 100.5t18.5 100.5t19 97l-42 2t-42 1h-21t-21 -1q-17 -27 -35.5 -53t-37.5 -52q-35 -48 -75 -95.5t-85.5 -88.5t-97.5 -73t-112 -48q-17 -5 -36.5 -8.5t-37.5 -3.5q-6 0 -9.5 5t-3.5 10q0 12 10 14q22 5 42 9.5t41 12.5q52 20 97 52.5t84.5 72t74.5 83.5 t67 88q12 17 23 33t22 33q-39 -8 -68 -22.5t-61 -37.5q-2 -2 -7 -2t-10.5 5.5t-5.5 10.5t3 8q34 38 83.5 59.5t98.5 29.5q20 31 42 65.5t45.5 69t48.5 66t52 56.5q6 4 9 4h2q-1 15 -4.5 30.5t-11 28t-19.5 20.5t-30 8q-24 0 -49.5 -9t-48 -19.5t-38.5 -19t-20 -8.5 q-6 0 -10.5 5.5t-4.5 10.5q0 7 7 12q5 4 12 7.5t13 7.5q33 19 70.5 35t77.5 16q8 0 17 -2.5t16 -5.5q20 -9 33.5 -26t21 -37.5t10.5 -43t3 -42.5q0 -56 -6 -110.5t-15 -109.5q42 5 82.5 15.5t79.5 26.5q11 4 21 8.5t21 9.5h3q6 0 11.5 -5.5t5.5 -12.5zM545 669 q-13 -22 -33 -54.5t-39.5 -64t-35.5 -56.5t-21 -32q8 0 16.5 0.5t17.5 0.5q15 0 30.5 -1t30.5 -1h7q10 52 17.5 103.5t9.5 104.5zM790 928q0 -2 -1 -7t-3 -7q-8 -20 -25 -32.5t-38 -12.5q-17 0 -33.5 6t-33 12.5t-32.5 12.5t-33 6q-11 0 -22 -3.5t-20.5 -7t-16 -7t-8.5 -3.5 q-6 0 -12.5 5.5t-6.5 11.5q0 1 2 5.5t3 5.5q9 18 25.5 31t36.5 16q5 1 15 1q21 0 41 -7.5t38.5 -17t35 -17t30.5 -7.5q10 0 15.5 4.5t9.5 10.5l7 10.5t8 4.5q2 0 10 -6t8 -8z" />
<glyph unicode="&#xc4;" horiz-adv-x="660" d="M0 0zM793 505q0 -4 -3 -7q-21 -23 -48 -39.5t-58 -27t-63 -16t-62 -6.5q-17 -98 -35 -198t-18 -200q0 -29 3.5 -57.5t15 -51t33 -36t57.5 -13.5q6 0 11.5 1t11.5 1q7 0 11 -5t4 -12t-7.5 -11.5t-17 -6.5t-19.5 -3t-15 -1q-43 0 -70.5 17.5t-43.5 46t-22.5 64t-6.5 70.5 q0 48 5.5 98t14 100.5t18.5 100.5t19 97l-42 2t-42 1h-21t-21 -1q-17 -27 -35.5 -53t-37.5 -52q-35 -48 -75 -95.5t-85.5 -88.5t-97.5 -73t-112 -48q-17 -5 -36.5 -8.5t-37.5 -3.5q-6 0 -9.5 5t-3.5 10q0 12 10 14q22 5 42 9.5t41 12.5q52 20 97 52.5t84.5 72t74.5 83.5 t67 88q12 17 23 33t22 33q-39 -8 -68 -22.5t-61 -37.5q-2 -2 -7 -2t-10.5 5.5t-5.5 10.5t3 8q34 38 83.5 59.5t98.5 29.5q20 31 42 65.5t45.5 69t48.5 66t52 56.5q6 4 9 4h2q-1 15 -4.5 30.5t-11 28t-19.5 20.5t-30 8q-24 0 -49.5 -9t-48 -19.5t-38.5 -19t-20 -8.5 q-6 0 -10.5 5.5t-4.5 10.5q0 7 7 12q5 4 12 7.5t13 7.5q33 19 70.5 35t77.5 16q8 0 17 -2.5t16 -5.5q20 -9 33.5 -26t21 -37.5t10.5 -43t3 -42.5q0 -56 -6 -110.5t-15 -109.5q42 5 82.5 15.5t79.5 26.5q11 4 21 8.5t21 9.5h3q6 0 11.5 -5.5t5.5 -12.5zM545 669 q-13 -22 -33 -54.5t-39.5 -64t-35.5 -56.5t-21 -32q8 0 16.5 0.5t17.5 0.5q15 0 30.5 -1t30.5 -1h7q10 52 17.5 103.5t9.5 104.5zM709 885q0 -4 -2 -7t-4 -7l-1 -1q2 -6 2 -8q-7 -5 -9.5 -11t-13.5 -6q-10 0 -19 8t-9 18q0 17 3.5 28t24.5 11q9 0 18.5 -7t9.5 -18zM621 885 q0 -6 -5 -14h-1v-1q1 -3 1 -8q-6 -5 -9 -11t-14 -6q-9 0 -18 8t-9 18q0 17 3 28t24 11q10 0 19 -7t9 -18z" />
<glyph unicode="&#xc5;" horiz-adv-x="660" d="M793 505q0 -4 -3 -7q-21 -23 -48 -39.5t-58 -27t-63 -16t-62 -6.5q-17 -98 -35 -198t-18 -200q0 -29 3.5 -57.5t15 -51t33 -36t57.5 -13.5q6 0 11.5 1t11.5 1q7 0 11 -5t4 -12t-7.5 -11.5t-17 -6.5t-19.5 -3t-15 -1q-43 0 -70.5 17.5t-43.5 46t-22.5 64t-6.5 70.5 q0 48 5.5 98t14 100.5t18.5 100.5t19 97l-42 2t-42 1h-21t-21 -1q-17 -27 -35.5 -53t-37.5 -52q-35 -48 -75 -95.5t-85.5 -88.5t-97.5 -73t-112 -48q-17 -5 -36.5 -8.5t-37.5 -3.5q-6 0 -9.5 5t-3.5 10q0 12 10 14q22 5 42 9.5t41 12.5q52 20 97 52.5t84.5 72t74.5 83.5 t67 88q12 17 23 33t22 33q-39 -8 -68 -22.5t-61 -37.5q-2 -2 -7 -2t-10.5 5.5t-5.5 10.5t3 8q34 38 83.5 59.5t98.5 29.5q18 29 38.5 61t42 64t45 62t48.5 56q-14 8 -22 21.5t-7 30.5v5q1 29 16 51.5t39 36.5q2 2 9 5t9 4q5 4 13 5.5t13 1.5q13 0 25.5 -6t21.5 -15.5 t14.5 -22t5.5 -25.5q0 -32 -13.5 -57.5t-42.5 -39.5q-3 -2 -5.5 -3t-5.5 -2v-4q1 -56 -5.5 -110.5t-15.5 -109.5q42 5 82.5 15.5t79.5 26.5q11 4 21 8.5t21 9.5h3q6 0 11.5 -5.5t5.5 -12.5zM602 783q0 17 -7.5 25t-21.5 13q-15 -11 -26.5 -26t-11.5 -35q0 -26 26 -26 q20 0 30.5 16t10.5 33zM545 669q-13 -22 -33 -54.5t-39.5 -64t-35.5 -56.5t-21 -32q8 0 16.5 0.5t17.5 0.5q15 0 30.5 -1t30.5 -1h7q10 52 17.5 103.5t9.5 104.5z" />
<glyph unicode="&#xc6;" horiz-adv-x="1015" d="M1240 795q0 -5 -4 -9q-32 -32 -78.5 -51.5t-90.5 -27.5q-45 -8 -90.5 -10.5t-90.5 -4.5q-37 -2 -76.5 -4.5t-78.5 -10t-75.5 -21t-67.5 -36.5q-4 -69 -15 -135.5t-23 -132.5l18 -1q91 -1 173 18t163 59q2 1 5 1q7 0 11 -5.5t4 -11.5q0 -7 -6 -10q-12 -9 -26 -16.5 t-28 -13.5q-74 -36 -154 -53t-161 -16h-8q-12 -66 -21.5 -132t-12.5 -133l11 1q33 0 65 -5t64 -11t64 -11t65 -5q31 0 61 6q49 10 83.5 34.5t69.5 58.5q3 3 8 3t11 -5t6 -11q0 -4 -3 -7q-45 -63 -108.5 -95t-140.5 -32q-31 0 -61 4t-60 9t-60.5 8.5t-60.5 3.5h-14 q1 -28 6 -52.5t17 -43t32.5 -29.5t52.5 -11q6 0 11.5 1t10.5 1q8 0 12 -5t4 -12t-7.5 -11.5t-17 -6.5t-19.5 -3t-15 -1q-37 0 -63 14t-43 37.5t-25.5 53.5t-10.5 63q-17 -3 -31 -6.5t-27 -8t-26 -10t-29 -11.5q-1 0 -1 -0.5t-1 -0.5h-1q-7 0 -12.5 6t-5.5 12q0 4 4 8 q24 27 59 43t70 22q2 69 13.5 136.5t24.5 134.5q-32 2 -64.5 6t-65.5 4h-21t-21 -1q-35 -49 -76 -98t-87.5 -92t-100 -76t-113.5 -49q-17 -5 -37 -9t-38 -4q-6 0 -9.5 5t-3.5 10q0 12 10 15q20 5 38.5 8.5t38.5 10.5q48 18 90.5 46.5t80 64.5t71 76t63.5 80 q-56 -17 -98.5 -48t-88.5 -64q-3 -3 -7 -3q-6 0 -11.5 5.5t-5.5 11.5q0 3 2 7q45 65 111 106t145 49q29 43 56 86.5t55 86.5q13 20 29 43t33 45.5t35 43.5t35 37q4 3 9 3h2q-1 15 -4.5 30.5t-11 28t-19.5 20.5t-30 8q-24 0 -49.5 -8.5t-48 -19t-38.5 -19t-20 -8.5 q-6 0 -10.5 5t-4.5 11t7 11t14.5 9t15.5 9q32 18 68.5 33t74.5 15q16 0 30 -7q21 -8 35 -24.5t22 -37.5t11 -43.5t3 -42.5v-11q31 21 67 34.5t74 22t77 12t76 5.5q90 4 171 17.5t164 50.5q1 1 5 1q6 0 11 -5.5t5 -11.5zM545 663q-11 -19 -28 -46.5t-36.5 -58t-40 -61.5 t-38 -57.5t-30 -46t-17.5 -26.5q36 -1 72 -5.5t72 -7.5q10 53 19.5 105t17.5 106q-3 -5 -7 -11t-11 -6q-5 0 -11 4t-6 11q0 4 5 13.5t12 19.5t14 19t11 13q1 9 1.5 17.5t0.5 17.5z" />
<glyph unicode="&#xc7;" horiz-adv-x="581" d="M663 728q-1 -6 -5.5 -11t-11.5 -5q-9 0 -18 1t-19 1q-74 0 -145 -28t-130.5 -76t-103.5 -112t-65 -136q-7 -23 -11.5 -47t-7.5 -47q-4 -27 -5 -55t3 -55t12.5 -52t24.5 -46q6 -8 13 -15.5t15 -12.5q15 -9 38 -13t42 -4q54 0 108 23t94 64q11 11 19 21.5t17 22.5q5 7 13 7 q6 0 10.5 -4t3.5 -11q0 -1 -2 -5q-21 -35 -50.5 -63.5t-64 -49.5t-72.5 -33t-77 -13q-1 -12 -2.5 -24t-3.5 -23q21 -2 42.5 -11t38 -24t25 -35.5t2.5 -44.5q-4 -18 -15.5 -33t-27 -26.5t-33 -20t-34.5 -13.5q-1 0 -6 -1.5l-10 -3t-9 -2.5l-5 -1q-5 0 -8.5 6.5t-2.5 11.5 q2 7 9 10q10 4 24.5 11t29 15.5t26 19.5t14.5 23q4 15 -5.5 28t-20.5 21q-14 10 -32 13t-37 1q-5 2 -13.5 10t-13.5 12l1 6q4 15 11 36.5t17 39.5q-18 2 -36.5 6.5t-30.5 11.5q-8 5 -16 13l-15 15q-45 50 -54 116.5t0 135.5q3 24 8 48t11 48q19 74 63 143.5t105.5 123 t135 86t150.5 32.5q18 0 43 -2.5t41 -8.5q10 -4 9 -15z" />
<glyph unicode="&#xc8;" d="M0 0zM926 824q0 -6 -3 -9q-32 -32 -78.5 -51.5t-90.5 -27.5q-43 -8 -86 -11t-86 -4.5t-86 -4t-85 -11.5q-5 -81 -25.5 -159t-46.5 -154q28 0 55.5 -4t55.5 -4q25 0 49.5 2.5t48.5 8.5q3 1 9.5 3l13 4t12 4t6.5 2q5 0 11 -7t6 -11q0 -6 -5 -9q-38 -24 -86 -35t-92 -11 q-17 0 -33 2t-33 2q-21 0 -38 -4q-26 -74 -58 -145t-68 -141q33 0 65.5 -5t64.5 -10.5t64.5 -10.5t65.5 -5q15 0 30 1t30 4q49 10 83.5 35t69.5 58q4 4 8 4q6 0 11.5 -5.5t5.5 -10.5q0 -3 -2 -7q-45 -63 -109 -95t-141 -32q-31 0 -61 3.5t-60 8t-60 8.5t-61 4h-17t-17 -1 l-7.5 -15t-12.5 -9q-7 0 -12.5 4t-5.5 11q0 3 2 5q-17 -3 -31 -6.5t-26.5 -8t-25.5 -10t-29 -11.5h-3q-7 0 -12 5.5t-5 12.5q0 5 3 8q29 32 70.5 47.5t83.5 20.5q29 67 56 134.5t52 136.5q-2 -1 -9 -4t-14 -6.5t-13 -6t-7 -2.5q-7 0 -13 6.5t-6 12.5v2q0 1 1 1 q12 23 35.5 38.5t47.5 23.5q26 78 45 157t46 156q-38 -11 -72.5 -30.5t-60.5 -49.5q-8 -8 -13 -17t-12 -17q-3 -5 -10 -5q-5 0 -11 4t-6 11q0 3 1 4q27 54 69.5 87.5t93.5 52t107.5 26t110.5 10.5q90 4 171 17.5t164 50.5q2 1 5 1q7 0 11.5 -5.5t4.5 -11.5zM610 859 q0 -6 -5.5 -13t-11.5 -7t-21 7t-32.5 16t-32.5 18t-21 13q-8 5 -15.5 16.5t-7.5 21.5q0 5 5.5 12.5t10.5 7.5q21 0 39 -13q7 -5 13 -10.5t13 -10.5q36 -25 65 -54q0 -1 0.5 -2t0.5 -2z" />
<glyph unicode="&#xc9;" d="M0 0zM926 824q0 -6 -3 -9q-32 -32 -78.5 -51.5t-90.5 -27.5q-43 -8 -86 -11t-86 -4.5t-86 -4t-85 -11.5q-5 -81 -25.5 -159t-46.5 -154q28 0 55.5 -4t55.5 -4q25 0 49.5 2.5t48.5 8.5q3 1 9.5 3l13 4t12 4t6.5 2q5 0 11 -7t6 -11q0 -6 -5 -9q-38 -24 -86 -35t-92 -11 q-17 0 -33 2t-33 2q-21 0 -38 -4q-26 -74 -58 -145t-68 -141q33 0 65.5 -5t64.5 -10.5t64.5 -10.5t65.5 -5q15 0 30 1t30 4q49 10 83.5 35t69.5 58q4 4 8 4q6 0 11.5 -5.5t5.5 -10.5q0 -3 -2 -7q-45 -63 -109 -95t-141 -32q-31 0 -61 3.5t-60 8t-60 8.5t-61 4h-17t-17 -1 l-7.5 -15t-12.5 -9q-7 0 -12.5 4t-5.5 11q0 3 2 5q-17 -3 -31 -6.5t-26.5 -8t-25.5 -10t-29 -11.5h-3q-7 0 -12 5.5t-5 12.5q0 5 3 8q29 32 70.5 47.5t83.5 20.5q29 67 56 134.5t52 136.5q-2 -1 -9 -4t-14 -6.5t-13 -6t-7 -2.5q-7 0 -13 6.5t-6 12.5v2q0 1 1 1 q12 23 35.5 38.5t47.5 23.5q26 78 45 157t46 156q-38 -11 -72.5 -30.5t-60.5 -49.5q-8 -8 -13 -17t-12 -17q-3 -5 -10 -5q-5 0 -11 4t-6 11q0 3 1 4q27 54 69.5 87.5t93.5 52t107.5 26t110.5 10.5q90 4 171 17.5t164 50.5q2 1 5 1q7 0 11.5 -5.5t4.5 -11.5zM670 926 q-9 -22 -27 -34q-7 -5 -14 -8.5t-15 -8.5q-33 -22 -73 -40q-6 0 -12 6.5t-6 12.5q0 1 0.5 2t0.5 2q18 22 40 41.5t45 36.5q16 11 35 11q10 0 17.5 -5t8.5 -16z" />
<glyph unicode="&#xca;" d="M0 0zM926 824q0 -6 -3 -9q-32 -32 -78.5 -51.5t-90.5 -27.5q-43 -8 -86 -11t-86 -4.5t-86 -4t-85 -11.5q-5 -81 -25.5 -159t-46.5 -154q28 0 55.5 -4t55.5 -4q25 0 49.5 2.5t48.5 8.5q3 1 9.5 3l13 4t12 4t6.5 2q5 0 11 -7t6 -11q0 -6 -5 -9q-38 -24 -86 -35t-92 -11 q-17 0 -33 2t-33 2q-21 0 -38 -4q-26 -74 -58 -145t-68 -141q33 0 65.5 -5t64.5 -10.5t64.5 -10.5t65.5 -5q15 0 30 1t30 4q49 10 83.5 35t69.5 58q4 4 8 4q6 0 11.5 -5.5t5.5 -10.5q0 -3 -2 -7q-45 -63 -109 -95t-141 -32q-31 0 -61 3.5t-60 8t-60 8.5t-61 4h-17t-17 -1 l-7.5 -15t-12.5 -9q-7 0 -12.5 4t-5.5 11q0 3 2 5q-17 -3 -31 -6.5t-26.5 -8t-25.5 -10t-29 -11.5h-3q-7 0 -12 5.5t-5 12.5q0 5 3 8q29 32 70.5 47.5t83.5 20.5q29 67 56 134.5t52 136.5q-2 -1 -9 -4t-14 -6.5t-13 -6t-7 -2.5q-7 0 -13 6.5t-6 12.5v2q0 1 1 1 q12 23 35.5 38.5t47.5 23.5q26 78 45 157t46 156q-38 -11 -72.5 -30.5t-60.5 -49.5q-8 -8 -13 -17t-12 -17q-3 -5 -10 -5q-5 0 -11 4t-6 11q0 3 1 4q27 54 69.5 87.5t93.5 52t107.5 26t110.5 10.5q90 4 171 17.5t164 50.5q2 1 5 1q7 0 11.5 -5.5t4.5 -11.5zM711 863 q0 -6 -5.5 -13t-11.5 -7l-3 1l-69 42q-3 1 -10 6t-15 10.5t-14.5 9.5t-7.5 4q-8 -7 -22.5 -18.5t-31 -22t-33 -18t-26.5 -7.5q-5 0 -11.5 7t-6.5 13v1q0 1 0.5 1t0.5 1q5 11 21.5 27t37 30.5t40.5 25t32 10.5q15 0 23 -7q30 -21 57.5 -44t53.5 -48v-2q0 -1 1 -2z" />
<glyph unicode="&#xcb;" d="M0 0zM926 824q0 -6 -3 -9q-32 -32 -78.5 -51.5t-90.5 -27.5q-43 -8 -86 -11t-86 -4.5t-86 -4t-85 -11.5q-5 -81 -25.5 -159t-46.5 -154q28 0 55.5 -4t55.5 -4q25 0 49.5 2.5t48.5 8.5q3 1 9.5 3l13 4t12 4t6.5 2q5 0 11 -7t6 -11q0 -6 -5 -9q-38 -24 -86 -35t-92 -11 q-17 0 -33 2t-33 2q-21 0 -38 -4q-26 -74 -58 -145t-68 -141q33 0 65.5 -5t64.5 -10.5t64.5 -10.5t65.5 -5q15 0 30 1t30 4q49 10 83.5 35t69.5 58q4 4 8 4q6 0 11.5 -5.5t5.5 -10.5q0 -3 -2 -7q-45 -63 -109 -95t-141 -32q-31 0 -61 3.5t-60 8t-60 8.5t-61 4h-17t-17 -1 l-7.5 -15t-12.5 -9q-7 0 -12.5 4t-5.5 11q0 3 2 5q-17 -3 -31 -6.5t-26.5 -8t-25.5 -10t-29 -11.5h-3q-7 0 -12 5.5t-5 12.5q0 5 3 8q29 32 70.5 47.5t83.5 20.5q29 67 56 134.5t52 136.5q-2 -1 -9 -4t-14 -6.5t-13 -6t-7 -2.5q-7 0 -13 6.5t-6 12.5v2q0 1 1 1 q12 23 35.5 38.5t47.5 23.5q26 78 45 157t46 156q-38 -11 -72.5 -30.5t-60.5 -49.5q-8 -8 -13 -17t-12 -17q-3 -5 -10 -5q-5 0 -11 4t-6 11q0 3 1 4q27 54 69.5 87.5t93.5 52t107.5 26t110.5 10.5q90 4 171 17.5t164 50.5q2 1 5 1q7 0 11.5 -5.5t4.5 -11.5zM678 885 q0 -4 -2 -7t-4 -7l-1 -1q2 -6 2 -8q-7 -5 -9.5 -11t-13.5 -6q-10 0 -19 8t-9 18q0 17 3.5 28t24.5 11q9 0 18.5 -7t9.5 -18zM590 885q0 -6 -5 -14h-1v-1q1 -3 1 -8q-6 -5 -9 -11t-14 -6q-9 0 -18 8t-9 18q0 17 3 28t24 11q10 0 19 -7t9 -18z" />
<glyph unicode="&#xcc;" horiz-adv-x="528" d="M0 0zM753 757q0 -8 -6 -11q-31 -15 -67.5 -22.5t-74.5 -10.5t-75.5 -2.5t-71.5 0.5q-6 -78 -29 -167t-56 -178t-71.5 -173.5t-75.5 -153.5q30 -2 59.5 -3t58.5 -1q25 0 49.5 1.5t48.5 5.5q7 2 13 3t13 3q5 1 8.5 3t8.5 2t10.5 -6.5t5.5 -11.5q0 -8 -6 -11 q-32 -15 -69.5 -22.5t-76.5 -10t-77.5 -2t-73.5 0.5q-3 -3 -7 -3t-8 3h-16q-53 -1 -102.5 -14.5t-97.5 -33.5q-12 -5 -24 -11.5t-25 -11.5h-3q-6 0 -11.5 5.5t-5.5 11.5q0 4 2 8q22 27 52 45.5t64 30t69.5 16.5t68.5 5q9 0 18 -0.5t18 -0.5q38 88 73.5 177t66.5 181 q26 78 45 156.5t45 156.5h-1q-53 0 -102.5 -13.5t-97.5 -34.5q-12 -5 -24.5 -11t-24.5 -11l-3 -1q-6 0 -12 6t-6 12q0 4 3 7q23 27 53.5 46t65 30t70.5 16t70 5q46 0 91 -3t91 -3q25 0 50 1.5t50 5.5q7 2 13.5 3t12.5 3q5 2 9 3.5t9 1.5t10.5 -6t5.5 -11zM538 869 q0 -6 -5.5 -13t-11.5 -7t-21 7t-32.5 16t-32.5 18t-21 13q-8 5 -15.5 16.5t-7.5 21.5q0 5 5.5 12.5t10.5 7.5q21 0 39 -13q7 -5 13 -10.5t13 -10.5q36 -25 65 -54q0 -1 0.5 -2t0.5 -2z" />
<glyph unicode="&#xcd;" horiz-adv-x="528" d="M0 0zM753 757q0 -8 -6 -11q-31 -15 -67.5 -22.5t-74.5 -10.5t-75.5 -2.5t-71.5 0.5q-6 -78 -29 -167t-56 -178t-71.5 -173.5t-75.5 -153.5q30 -2 59.5 -3t58.5 -1q25 0 49.5 1.5t48.5 5.5q7 2 13 3t13 3q5 1 8.5 3t8.5 2t10.5 -6.5t5.5 -11.5q0 -8 -6 -11 q-32 -15 -69.5 -22.5t-76.5 -10t-77.5 -2t-73.5 0.5q-3 -3 -7 -3t-8 3h-16q-53 -1 -102.5 -14.5t-97.5 -33.5q-12 -5 -24 -11.5t-25 -11.5h-3q-6 0 -11.5 5.5t-5.5 11.5q0 4 2 8q22 27 52 45.5t64 30t69.5 16.5t68.5 5q9 0 18 -0.5t18 -0.5q38 88 73.5 177t66.5 181 q26 78 45 156.5t45 156.5h-1q-53 0 -102.5 -13.5t-97.5 -34.5q-12 -5 -24.5 -11t-24.5 -11l-3 -1q-6 0 -12 6t-6 12q0 4 3 7q23 27 53.5 46t65 30t70.5 16t70 5q46 0 91 -3t91 -3q25 0 50 1.5t50 5.5q7 2 13.5 3t12.5 3q5 2 9 3.5t9 1.5t10.5 -6t5.5 -11zM589 926 q-9 -22 -27 -34q-7 -5 -14 -8.5t-15 -8.5q-33 -22 -73 -40q-6 0 -12 6.5t-6 12.5q0 1 0.5 2t0.5 2q18 22 40 41.5t45 36.5q16 11 35 11q10 0 17.5 -5t8.5 -16z" />
<glyph unicode="&#xce;" horiz-adv-x="528" d="M0 0zM753 757q0 -8 -6 -11q-31 -15 -67.5 -22.5t-74.5 -10.5t-75.5 -2.5t-71.5 0.5q-6 -78 -29 -167t-56 -178t-71.5 -173.5t-75.5 -153.5q30 -2 59.5 -3t58.5 -1q25 0 49.5 1.5t48.5 5.5q7 2 13 3t13 3q5 1 8.5 3t8.5 2t10.5 -6.5t5.5 -11.5q0 -8 -6 -11 q-32 -15 -69.5 -22.5t-76.5 -10t-77.5 -2t-73.5 0.5q-3 -3 -7 -3t-8 3h-16q-53 -1 -102.5 -14.5t-97.5 -33.5q-12 -5 -24 -11.5t-25 -11.5h-3q-6 0 -11.5 5.5t-5.5 11.5q0 4 2 8q22 27 52 45.5t64 30t69.5 16.5t68.5 5q9 0 18 -0.5t18 -0.5q38 88 73.5 177t66.5 181 q26 78 45 156.5t45 156.5h-1q-53 0 -102.5 -13.5t-97.5 -34.5q-12 -5 -24.5 -11t-24.5 -11l-3 -1q-6 0 -12 6t-6 12q0 4 3 7q23 27 53.5 46t65 30t70.5 16t70 5q46 0 91 -3t91 -3q25 0 50 1.5t50 5.5q7 2 13.5 3t12.5 3q5 2 9 3.5t9 1.5t10.5 -6t5.5 -11zM608 853 q0 -6 -5.5 -13t-11.5 -7l-3 1l-69 42q-3 1 -10 6t-15 10.5t-14.5 9.5t-7.5 4q-8 -7 -22.5 -18.5t-31 -22t-33 -18t-26.5 -7.5q-5 0 -11.5 7t-6.5 13v1q0 1 0.5 1t0.5 1q5 11 21.5 27t37 30.5t40.5 25t32 10.5q15 0 23 -7q30 -21 57.5 -44t53.5 -48v-2q0 -1 1 -2z" />
<glyph unicode="&#xcf;" horiz-adv-x="528" d="M0 0zM753 757q0 -8 -6 -11q-31 -15 -67.5 -22.5t-74.5 -10.5t-75.5 -2.5t-71.5 0.5q-6 -78 -29 -167t-56 -178t-71.5 -173.5t-75.5 -153.5q30 -2 59.5 -3t58.5 -1q25 0 49.5 1.5t48.5 5.5q7 2 13 3t13 3q5 1 8.5 3t8.5 2t10.5 -6.5t5.5 -11.5q0 -8 -6 -11 q-32 -15 -69.5 -22.5t-76.5 -10t-77.5 -2t-73.5 0.5q-3 -3 -7 -3t-8 3h-16q-53 -1 -102.5 -14.5t-97.5 -33.5q-12 -5 -24 -11.5t-25 -11.5h-3q-6 0 -11.5 5.5t-5.5 11.5q0 4 2 8q22 27 52 45.5t64 30t69.5 16.5t68.5 5q9 0 18 -0.5t18 -0.5q38 88 73.5 177t66.5 181 q26 78 45 156.5t45 156.5h-1q-53 0 -102.5 -13.5t-97.5 -34.5q-12 -5 -24.5 -11t-24.5 -11l-3 -1q-6 0 -12 6t-6 12q0 4 3 7q23 27 53.5 46t65 30t70.5 16t70 5q46 0 91 -3t91 -3q25 0 50 1.5t50 5.5q7 2 13.5 3t12.5 3q5 2 9 3.5t9 1.5t10.5 -6t5.5 -11zM546 875 q0 -4 -2 -7t-4 -7l-1 -1q2 -6 2 -8q-7 -5 -9.5 -11t-13.5 -6q-10 0 -19 8t-9 18q0 17 3.5 28t24.5 11q9 0 18.5 -7t9.5 -18zM458 875q0 -6 -5 -14h-1v-1q1 -3 1 -8q-6 -5 -9 -11t-14 -6q-9 0 -18 8t-9 18q0 17 3 28t24 11q10 0 19 -7t9 -18z" />
<glyph unicode="&#xd0;" horiz-adv-x="853" d="M889 511q0 -58 -17.5 -119.5t-49 -120.5t-74.5 -112t-95 -93t-111 -63.5t-121 -23.5q-61 0 -115 25.5t-98 66.5q-40 -42 -93.5 -68.5t-111.5 -26.5q-6 0 -9.5 5t-3.5 10q0 12 11 15q20 4 38.5 7.5t38.5 12.5q45 20 79.5 55.5t61.5 79t47 91t36 91.5q-8 -1 -16.5 -1h-16.5 q-9 0 -20.5 1t-24 2.5t-24 4.5t-18.5 8q-3 2 -5 6.5t-2 8.5q0 3 2.5 8t5.5 7q15 6 37.5 7.5t39.5 1.5q15 0 30.5 -0.5t30.5 -1.5q23 70 44.5 141.5t56.5 137.5q-28 -16 -57 -29.5t-56 -30.5q-40 -25 -79 -57.5t-59 -77.5q-5 -11 -7 -22t-5 -22q-1 -4 -5 -6.5t-8 -2.5 q-9 0 -12.5 5t-3.5 13q0 40 17 75t45.5 65t64.5 56t74.5 47.5t76 39t68.5 30.5q2 1 3.5 2t4.5 1q6 0 11.5 -4.5t5.5 -11.5q0 -1 -4.5 -12t-9.5 -24.5t-10.5 -26t-6.5 -16.5q41 44 91 71t111 27h20q26 -4 51 -15t47 -27.5t40 -37t30 -43.5q15 -30 22 -63t7 -66zM837 501 q0 38 -11.5 75.5t-33.5 67t-54 47.5t-74 18q-30 0 -58 -10.5t-53 -27t-47 -37t-40 -41.5q-8 -10 -20.5 -23t-18.5 -24q-2 -5 -5 -13.5t-6 -18t-6 -18.5l-5 -15q-14 -44 -30 -87q23 -1 45 -1.5t44 -2.5q13 -1 26.5 -1t25.5 -3q5 -1 8 -5.5t3 -8.5t-3 -9t-7 -6 q-12 -3 -26 -3.5t-27 -2.5q-52 -4 -107 -6l-2 -8q-25 -66 -54.5 -127t-72.5 -116q38 -33 85 -54.5t98 -21.5q53 0 102 18.5t93 50.5t81 74.5t66 90.5t49 98t30 98q2 14 3.5 26.5t1.5 26.5z" />
<glyph unicode="&#xd1;" horiz-adv-x="764" d="M0 0zM1077 800q0 -12 -12 -15q-22 -5 -41 -8.5t-41 -12.5q-50 -22 -87.5 -61.5t-67 -87.5t-51 -100t-39.5 -100t-36 -105.5t-38.5 -115t-46 -110.5t-59.5 -92q-3 -3 -7.5 -4t-9.5 -1q-9 0 -12 8q-15 38 -22.5 83.5t-12.5 86.5q-15 130 -24.5 259.5t-33.5 257.5 q-35 -88 -65 -176t-64 -176q-24 -62 -52.5 -121t-69.5 -112q-21 -27 -47 -50t-56 -40t-63 -26.5t-68 -9.5q-5 0 -8.5 5t-3.5 10q0 12 11 14q20 5 38.5 8.5t38.5 11.5q47 21 82.5 58t63.5 82t48.5 94t37.5 94q15 40 28.5 81t27 81.5t29 80.5t35.5 78q-28 -17 -57 -30.5 t-57 -30.5q-40 -24 -79.5 -57t-59.5 -78q-5 -11 -7 -21.5t-5 -21.5q-3 -10 -14 -10q-3 0 -9.5 4t-6.5 8q0 37 13 69t35 59.5t50 50.5t57 41q47 29 96.5 56t101.5 45h2q8 0 14.5 -6t4.5 -14q29 -97 44 -195t27 -198q8 -68 16 -135.5t12 -136.5q37 91 67.5 182.5t65.5 182.5 q26 66 56 128.5t72 118.5q22 28 49.5 52.5t59 43t66.5 29t71 10.5q5 0 9 -5t4 -10zM811 846q0 -2 -1 -7t-3 -7q-8 -20 -25 -32.5t-38 -12.5q-17 0 -33.5 6t-33 12.5t-32.5 12.5t-33 6q-11 0 -22 -3.5t-20.5 -7t-16 -7t-8.5 -3.5q-6 0 -12.5 5.5t-6.5 11.5q0 1 2 5.5t3 5.5 q9 18 25.5 31t36.5 16q5 1 15 1q21 0 41 -7.5t38.5 -17t35 -17t30.5 -7.5q10 0 15.5 4.5t9.5 10.5l7 10.5t8 4.5q2 0 10 -6t8 -8z" />
<glyph unicode="&#xd2;" d="M92 0zM742 566q0 -60 -15 -116t-40 -108t-58.5 -101t-69.5 -94q-24 -30 -56.5 -61t-69.5 -57t-77.5 -42.5t-80.5 -16.5q-33 0 -64 10.5t-56 29.5t-41.5 46.5t-19.5 62.5q-1 9 -1.5 18.5t-0.5 18.5q0 51 11 99t29.5 94t43 89t51.5 85q18 26 35.5 53t37.5 53q6 6 12 6 t10.5 -4.5t4.5 -10.5q0 -3 -2 -9q-32 -50 -65.5 -102.5t-61 -108t-45 -114t-17.5 -121.5v-19.5t2 -20.5q3 -26 15 -45.5t30 -33.5t41 -21t47 -7q35 0 70.5 15.5t68 39t61 52t49.5 54.5q32 40 62 85.5t53.5 94.5t37.5 101t14 105q0 34 -9 64.5t-27.5 53t-46 35.5t-64.5 13 q-44 0 -82.5 -15t-75.5 -37q-4 -2 -8 -2q-7 0 -11.5 4.5t-4.5 10.5t6 12q38 32 88.5 53t99.5 21q46 0 81.5 -17t59.5 -46t36.5 -67.5t12.5 -81.5zM701 869q0 -6 -5.5 -13t-11.5 -7t-21 7t-32.5 16t-32.5 18t-21 13q-8 5 -15.5 16.5t-7.5 21.5q0 5 5.5 12.5t10.5 7.5 q21 0 39 -13q7 -5 13 -10.5t13 -10.5q36 -25 65 -54q0 -1 0.5 -2t0.5 -2z" />
<glyph unicode="&#xd3;" d="M92 0zM742 566q0 -60 -15 -116t-40 -108t-58.5 -101t-69.5 -94q-24 -30 -56.5 -61t-69.5 -57t-77.5 -42.5t-80.5 -16.5q-33 0 -64 10.5t-56 29.5t-41.5 46.5t-19.5 62.5q-1 9 -1.5 18.5t-0.5 18.5q0 51 11 99t29.5 94t43 89t51.5 85q18 26 35.5 53t37.5 53q6 6 12 6 t10.5 -4.5t4.5 -10.5q0 -3 -2 -9q-32 -50 -65.5 -102.5t-61 -108t-45 -114t-17.5 -121.5v-19.5t2 -20.5q3 -26 15 -45.5t30 -33.5t41 -21t47 -7q35 0 70.5 15.5t68 39t61 52t49.5 54.5q32 40 62 85.5t53.5 94.5t37.5 101t14 105q0 34 -9 64.5t-27.5 53t-46 35.5t-64.5 13 q-44 0 -82.5 -15t-75.5 -37q-4 -2 -8 -2q-7 0 -11.5 4.5t-4.5 10.5t6 12q38 32 88.5 53t99.5 21q46 0 81.5 -17t59.5 -46t36.5 -67.5t12.5 -81.5zM742 926q-9 -22 -27 -34q-7 -5 -14 -8.5t-15 -8.5q-33 -22 -73 -40q-6 0 -12 6.5t-6 12.5q0 1 0.5 2t0.5 2q18 22 40 41.5 t45 36.5q16 11 35 11q10 0 17.5 -5t8.5 -16z" />
<glyph unicode="&#xd4;" d="M92 0zM742 566q0 -60 -15 -116t-40 -108t-58.5 -101t-69.5 -94q-24 -30 -56.5 -61t-69.5 -57t-77.5 -42.5t-80.5 -16.5q-33 0 -64 10.5t-56 29.5t-41.5 46.5t-19.5 62.5q-1 9 -1.5 18.5t-0.5 18.5q0 51 11 99t29.5 94t43 89t51.5 85q18 26 35.5 53t37.5 53q6 6 12 6 t10.5 -4.5t4.5 -10.5q0 -3 -2 -9q-32 -50 -65.5 -102.5t-61 -108t-45 -114t-17.5 -121.5v-19.5t2 -20.5q3 -26 15 -45.5t30 -33.5t41 -21t47 -7q35 0 70.5 15.5t68 39t61 52t49.5 54.5q32 40 62 85.5t53.5 94.5t37.5 101t14 105q0 34 -9 64.5t-27.5 53t-46 35.5t-64.5 13 q-44 0 -82.5 -15t-75.5 -37q-4 -2 -8 -2q-7 0 -11.5 4.5t-4.5 10.5t6 12q38 32 88.5 53t99.5 21q46 0 81.5 -17t59.5 -46t36.5 -67.5t12.5 -81.5zM781 863q0 -6 -5.5 -13t-11.5 -7l-3 1l-69 42q-3 1 -10 6t-15 10.5t-14.5 9.5t-7.5 4q-8 -7 -22.5 -18.5t-31 -22t-33 -18 t-26.5 -7.5q-5 0 -11.5 7t-6.5 13v1q0 1 0.5 1t0.5 1q5 11 21.5 27t37 30.5t40.5 25t32 10.5q15 0 23 -7q30 -21 57.5 -44t53.5 -48v-2q0 -1 1 -2z" />
<glyph unicode="&#xd5;" d="M92 0zM742 566q0 -60 -15 -116t-40 -108t-58.5 -101t-69.5 -94q-24 -30 -56.5 -61t-69.5 -57t-77.5 -42.5t-80.5 -16.5q-33 0 -64 10.5t-56 29.5t-41.5 46.5t-19.5 62.5q-1 9 -1.5 18.5t-0.5 18.5q0 51 11 99t29.5 94t43 89t51.5 85q18 26 35.5 53t37.5 53q6 6 12 6 t10.5 -4.5t4.5 -10.5q0 -3 -2 -9q-32 -50 -65.5 -102.5t-61 -108t-45 -114t-17.5 -121.5v-19.5t2 -20.5q3 -26 15 -45.5t30 -33.5t41 -21t47 -7q35 0 70.5 15.5t68 39t61 52t49.5 54.5q32 40 62 85.5t53.5 94.5t37.5 101t14 105q0 34 -9 64.5t-27.5 53t-46 35.5t-64.5 13 q-44 0 -82.5 -15t-75.5 -37q-4 -2 -8 -2q-7 0 -11.5 4.5t-4.5 10.5t6 12q38 32 88.5 53t99.5 21q46 0 81.5 -17t59.5 -46t36.5 -67.5t12.5 -81.5zM790 918q0 -2 -1 -7t-3 -7q-8 -20 -25 -32.5t-38 -12.5q-17 0 -33.5 6t-33 12.5t-32.5 12.5t-33 6q-11 0 -22 -3.5t-20.5 -7 t-16 -7t-8.5 -3.5q-6 0 -12.5 5.5t-6.5 11.5q0 1 2 5.5t3 5.5q9 18 25.5 31t36.5 16q5 1 15 1q21 0 41 -7.5t38.5 -17t35 -17t30.5 -7.5q10 0 15.5 4.5t9.5 10.5l7 10.5t8 4.5q2 0 10 -6t8 -8z" />
<glyph unicode="&#xd6;" d="M92 0zM742 566q0 -60 -15 -116t-40 -108t-58.5 -101t-69.5 -94q-24 -30 -56.5 -61t-69.5 -57t-77.5 -42.5t-80.5 -16.5q-33 0 -64 10.5t-56 29.5t-41.5 46.5t-19.5 62.5q-1 9 -1.5 18.5t-0.5 18.5q0 51 11 99t29.5 94t43 89t51.5 85q18 26 35.5 53t37.5 53q6 6 12 6 t10.5 -4.5t4.5 -10.5q0 -3 -2 -9q-32 -50 -65.5 -102.5t-61 -108t-45 -114t-17.5 -121.5v-19.5t2 -20.5q3 -26 15 -45.5t30 -33.5t41 -21t47 -7q35 0 70.5 15.5t68 39t61 52t49.5 54.5q32 40 62 85.5t53.5 94.5t37.5 101t14 105q0 34 -9 64.5t-27.5 53t-46 35.5t-64.5 13 q-44 0 -82.5 -15t-75.5 -37q-4 -2 -8 -2q-7 0 -11.5 4.5t-4.5 10.5t6 12q38 32 88.5 53t99.5 21q46 0 81.5 -17t59.5 -46t36.5 -67.5t12.5 -81.5zM709 885q0 -4 -2 -7t-4 -7l-1 -1q2 -6 2 -8q-7 -5 -9.5 -11t-13.5 -6q-10 0 -19 8t-9 18q0 17 3.5 28t24.5 11q9 0 18.5 -7 t9.5 -18zM621 885q0 -6 -5 -14h-1v-1q1 -3 1 -8q-6 -5 -9 -11t-14 -6q-9 0 -18 8t-9 18q0 17 3 28t24 11q10 0 19 -7t9 -18z" />
<glyph unicode="&#xd7;" horiz-adv-x="495" d="M515 121q0 -5 -5.5 -10.5t-10.5 -5.5q-3 0 -17 11t-33 28t-41.5 37.5t-42.5 39t-35 32.5t-20 19q-18 -18 -41 -42.5t-47.5 -48.5t-50 -44.5t-47.5 -30.5l-3 -1q-6 0 -12.5 5.5t-6.5 12.5q0 2 2 6q34 51 79.5 94t89.5 85q-18 18 -42.5 40.5t-48 47t-44 49.5t-30.5 48 q-1 0 -1 2v1q0 6 5.5 12.5t11.5 6.5q3 0 7 -2q51 -34 94 -79.5t85 -90.5q60 58 120 114q14 14 28.5 27.5t29.5 26.5q4 3 8 3q5 0 10.5 -6t5.5 -11q0 -3 -11 -17t-28 -33t-37.5 -41.5t-39 -42.5t-33 -35t-19.5 -20q58 -59 115 -121q14 -14 27.5 -28.5t26.5 -29.5q2 -6 2 -8z " />
<glyph unicode="&#xd8;" horiz-adv-x="731" d="M792 814q0 -4 -9 -21t-20 -36.5t-22 -37t-14 -23.5q20 -31 28 -63t8 -67q0 -60 -15 -116t-40.5 -108.5t-59 -101t-69.5 -93.5q-24 -30 -56 -61.5t-69.5 -57t-78 -42t-80.5 -16.5q-42 0 -82 17t-66 50q-34 -30 -68.5 -60.5t-70.5 -58.5q-3 -3 -8 -3q-6 0 -10.5 5t-4.5 11 t4 9q11 11 22 21t22 21q23 22 46.5 44t46.5 45q-9 20 -11 42t-2 44q0 51 11 99t29.5 93.5t43 88.5t51.5 85q17 25 36 54t37 52q6 6 12 6t10.5 -4.5t4.5 -10.5q0 -5 -3 -9q-33 -53 -66.5 -104.5t-61.5 -108.5q-26 -54 -43.5 -112t-17.5 -119q0 -15 1 -30.5t5 -30.5 q72 71 140 143.5t133 149.5q61 71 116 144.5t111 148.5q-20 21 -46.5 30t-55.5 9q-43 0 -81.5 -15.5t-75.5 -36.5q-6 -2 -9 -2q-6 0 -10.5 4.5t-4.5 10.5q0 7 6 12q18 16 40.5 29.5t47 23.5t50 15.5t49.5 5.5q35 0 65.5 -10t56.5 -34q17 23 34.5 46.5t36.5 43.5q5 5 10 5 q7 0 12 -4.5t5 -10.5zM708 565q0 21 -3.5 40.5t-11.5 38.5q-52 -77 -113 -153t-127 -149.5t-135 -142.5t-137 -131q20 -25 49.5 -37.5t61.5 -12.5q35 0 70.5 15.5t68 39t60.5 52t49 54.5q32 40 62.5 85.5t54 94.5t37.5 101t14 105z" />
<glyph unicode="&#xd9;" horiz-adv-x="769" d="M113 0zM815 748q-17 -47 -39.5 -101t-46 -112t-46 -119t-40 -120t-28.5 -115.5t-11 -105.5q0 -20 9 -39t32 -19q16 0 38 9t42.5 20.5t36 20.5t18.5 9q6 0 10.5 -5.5t4.5 -11.5t-5 -9q-23 -20 -57 -40t-64 -28q-13 -4 -29 -4q-26 0 -42 11.5t-25 29.5t-12 39.5t-3 42.5 q0 15 1.5 30t3.5 30q-18 -27 -44.5 -60t-58 -61.5t-67 -47.5t-70.5 -19q-30 0 -48.5 12.5t-28.5 32t-13.5 43.5t-3.5 48q0 32 4.5 62.5t11.5 60.5q26 118 64 231t95 220q-29 -17 -58.5 -31t-58.5 -31q-39 -24 -77.5 -56t-56.5 -76q-5 -10 -6.5 -19t-4.5 -19q-2 -9 -13 -9 q-5 0 -10.5 4t-5.5 10q0 35 12.5 65.5t33.5 56.5t47.5 47.5t53.5 38.5q45 28 91.5 52.5t95.5 42.5q2 3 5.5 5t6.5 2q6 0 11.5 -4.5t5.5 -11.5q0 -3 -1 -4q-15 -41 -35.5 -93t-42.5 -109.5t-43 -117.5t-37.5 -118t-27 -110.5t-10.5 -94.5q0 -14 0.5 -28.5t5 -26.5t14 -20 t27.5 -8q24 0 48 13q54 28 98 75.5t79 97.5q7 9 15 20t13 21q3 7 4.5 16t3.5 17q5 16 9 31.5t9 32.5q30 95 64.5 187.5t85.5 178.5q8 13 15.5 26t16.5 25q3 5 10 5q8 0 12.5 -5t5.5 -13zM690 838q0 -6 -5.5 -13t-11.5 -7t-21 7t-32.5 16t-32.5 18t-21 13q-8 5 -15.5 16.5 t-7.5 21.5q0 5 5.5 12.5t10.5 7.5q21 0 39 -13q7 -5 13 -10.5t13 -10.5q36 -25 65 -54q0 -1 0.5 -2t0.5 -2z" />
<glyph unicode="&#xda;" horiz-adv-x="769" d="M113 0zM815 748q-17 -47 -39.5 -101t-46 -112t-46 -119t-40 -120t-28.5 -115.5t-11 -105.5q0 -20 9 -39t32 -19q16 0 38 9t42.5 20.5t36 20.5t18.5 9q6 0 10.5 -5.5t4.5 -11.5t-5 -9q-23 -20 -57 -40t-64 -28q-13 -4 -29 -4q-26 0 -42 11.5t-25 29.5t-12 39.5t-3 42.5 q0 15 1.5 30t3.5 30q-18 -27 -44.5 -60t-58 -61.5t-67 -47.5t-70.5 -19q-30 0 -48.5 12.5t-28.5 32t-13.5 43.5t-3.5 48q0 32 4.5 62.5t11.5 60.5q26 118 64 231t95 220q-29 -17 -58.5 -31t-58.5 -31q-39 -24 -77.5 -56t-56.5 -76q-5 -10 -6.5 -19t-4.5 -19q-2 -9 -13 -9 q-5 0 -10.5 4t-5.5 10q0 35 12.5 65.5t33.5 56.5t47.5 47.5t53.5 38.5q45 28 91.5 52.5t95.5 42.5q2 3 5.5 5t6.5 2q6 0 11.5 -4.5t5.5 -11.5q0 -3 -1 -4q-15 -41 -35.5 -93t-42.5 -109.5t-43 -117.5t-37.5 -118t-27 -110.5t-10.5 -94.5q0 -14 0.5 -28.5t5 -26.5t14 -20 t27.5 -8q24 0 48 13q54 28 98 75.5t79 97.5q7 9 15 20t13 21q3 7 4.5 16t3.5 17q5 16 9 31.5t9 32.5q30 95 64.5 187.5t85.5 178.5q8 13 15.5 26t16.5 25q3 5 10 5q8 0 12.5 -5t5.5 -13zM742 895q-9 -22 -27 -34q-7 -5 -14 -8.5t-15 -8.5q-33 -22 -73 -40q-6 0 -12 6.5 t-6 12.5q0 1 0.5 2t0.5 2q18 22 40 41.5t45 36.5q16 11 35 11q10 0 17.5 -5t8.5 -16z" />
<glyph unicode="&#xdb;" horiz-adv-x="769" d="M113 0zM815 748q-17 -47 -39.5 -101t-46 -112t-46 -119t-40 -120t-28.5 -115.5t-11 -105.5q0 -20 9 -39t32 -19q16 0 38 9t42.5 20.5t36 20.5t18.5 9q6 0 10.5 -5.5t4.5 -11.5t-5 -9q-23 -20 -57 -40t-64 -28q-13 -4 -29 -4q-26 0 -42 11.5t-25 29.5t-12 39.5t-3 42.5 q0 15 1.5 30t3.5 30q-18 -27 -44.5 -60t-58 -61.5t-67 -47.5t-70.5 -19q-30 0 -48.5 12.5t-28.5 32t-13.5 43.5t-3.5 48q0 32 4.5 62.5t11.5 60.5q26 118 64 231t95 220q-29 -17 -58.5 -31t-58.5 -31q-39 -24 -77.5 -56t-56.5 -76q-5 -10 -6.5 -19t-4.5 -19q-2 -9 -13 -9 q-5 0 -10.5 4t-5.5 10q0 35 12.5 65.5t33.5 56.5t47.5 47.5t53.5 38.5q45 28 91.5 52.5t95.5 42.5q2 3 5.5 5t6.5 2q6 0 11.5 -4.5t5.5 -11.5q0 -3 -1 -4q-15 -41 -35.5 -93t-42.5 -109.5t-43 -117.5t-37.5 -118t-27 -110.5t-10.5 -94.5q0 -14 0.5 -28.5t5 -26.5t14 -20 t27.5 -8q24 0 48 13q54 28 98 75.5t79 97.5q7 9 15 20t13 21q3 7 4.5 16t3.5 17q5 16 9 31.5t9 32.5q30 95 64.5 187.5t85.5 178.5q8 13 15.5 26t16.5 25q3 5 10 5q8 0 12.5 -5t5.5 -13zM771 853q0 -6 -5.5 -13t-11.5 -7l-3 1l-69 42q-3 1 -10 6t-15 10.5t-14.5 9.5t-7.5 4 q-8 -7 -22.5 -18.5t-31 -22t-33 -18t-26.5 -7.5q-5 0 -11.5 7t-6.5 13v1q0 1 0.5 1t0.5 1q5 11 21.5 27t37 30.5t40.5 25t32 10.5q15 0 23 -7q30 -21 57.5 -44t53.5 -48v-2q0 -1 1 -2z" />
<glyph unicode="&#xdc;" horiz-adv-x="769" d="M113 0zM815 748q-17 -47 -39.5 -101t-46 -112t-46 -119t-40 -120t-28.5 -115.5t-11 -105.5q0 -20 9 -39t32 -19q16 0 38 9t42.5 20.5t36 20.5t18.5 9q6 0 10.5 -5.5t4.5 -11.5t-5 -9q-23 -20 -57 -40t-64 -28q-13 -4 -29 -4q-26 0 -42 11.5t-25 29.5t-12 39.5t-3 42.5 q0 15 1.5 30t3.5 30q-18 -27 -44.5 -60t-58 -61.5t-67 -47.5t-70.5 -19q-30 0 -48.5 12.5t-28.5 32t-13.5 43.5t-3.5 48q0 32 4.5 62.5t11.5 60.5q26 118 64 231t95 220q-29 -17 -58.5 -31t-58.5 -31q-39 -24 -77.5 -56t-56.5 -76q-5 -10 -6.5 -19t-4.5 -19q-2 -9 -13 -9 q-5 0 -10.5 4t-5.5 10q0 35 12.5 65.5t33.5 56.5t47.5 47.5t53.5 38.5q45 28 91.5 52.5t95.5 42.5q2 3 5.5 5t6.5 2q6 0 11.5 -4.5t5.5 -11.5q0 -3 -1 -4q-15 -41 -35.5 -93t-42.5 -109.5t-43 -117.5t-37.5 -118t-27 -110.5t-10.5 -94.5q0 -14 0.5 -28.5t5 -26.5t14 -20 t27.5 -8q24 0 48 13q54 28 98 75.5t79 97.5q7 9 15 20t13 21q3 7 4.5 16t3.5 17q5 16 9 31.5t9 32.5q30 95 64.5 187.5t85.5 178.5q8 13 15.5 26t16.5 25q3 5 10 5q8 0 12.5 -5t5.5 -13zM709 885q0 -4 -2 -7t-4 -7l-1 -1q2 -6 2 -8q-7 -5 -9.5 -11t-13.5 -6q-10 0 -19 8 t-9 18q0 17 3.5 28t24.5 11q9 0 18.5 -7t9.5 -18zM621 885q0 -6 -5 -14h-1v-1q1 -3 1 -8q-6 -5 -9 -11t-14 -6q-9 0 -18 8t-9 18q0 17 3 28t24 11q10 0 19 -7t9 -18z" />
<glyph unicode="&#xdd;" horiz-adv-x="742" d="M0 0zM819 559q0 -6 -3 -9q-36 -52 -67.5 -102.5t-59.5 -102.5t-51.5 -106.5t-43.5 -114.5q-20 -58 -33.5 -117.5t-27 -119.5t-28.5 -119.5t-37 -117.5q-20 -52 -46 -98.5t-61.5 -82t-82.5 -56t-108 -20.5q-52 0 -97 16.5t-78.5 47t-52.5 73.5t-19 96q0 54 16.5 109 t45.5 105.5t69 92t87 67.5q4 2 7 2q6 0 10.5 -4.5t4.5 -10.5q0 -8 -8 -13q-10 -8 -20 -14.5t-20 -14.5q-45 -37 -76.5 -86t-51.5 -103q-10 -29 -16 -59.5t-6 -62.5q0 -46 15 -82t42 -60.5t64.5 -37.5t82.5 -13q23 0 45.5 4t44.5 14q35 15 63.5 44t51 67t40 81.5t30.5 87.5 t22.5 86t16.5 76q12 54 24 108.5t27 108.5q-17 -22 -40.5 -47.5t-51 -47t-57.5 -36t-60 -14.5t-48.5 12.5t-28 32t-13 43.5t-3.5 48q0 32 4 62.5t11 60.5q26 118 64 231t95 220q-29 -17 -58.5 -31t-58.5 -31q-39 -24 -77.5 -56t-56.5 -76q-4 -10 -6 -19t-4 -19q-3 -9 -14 -9 q-5 0 -10.5 4t-5.5 10q0 35 12.5 65.5t33.5 56.5t47.5 47.5t53.5 38.5q45 28 91.5 52.5t96.5 42.5q1 3 4.5 5t6.5 2q6 0 11.5 -4.5t5.5 -11.5q0 -3 -1 -4q-15 -41 -35.5 -93t-42.5 -109.5t-43 -118t-37.5 -118t-27 -110t-10.5 -94.5q0 -14 0.5 -28.5t5 -26.5t14 -20t27.5 -8 q13 0 25 4t23 9q36 18 66 44.5t56.5 57.5t50 64.5t44.5 65.5q2 2 2 3q18 38 40 78.5t47 80t53 76t57 66.5q5 5 12 5q6 0 10.5 -4t4.5 -11zM793 823q-9 -22 -27 -34q-7 -5 -14 -8.5t-15 -8.5q-33 -22 -73 -40q-6 0 -12 6.5t-6 12.5q0 1 0.5 2t0.5 2q18 22 40 41.5t45 36.5 q16 11 35 11q10 0 17.5 -5t8.5 -16z" />
<glyph unicode="&#xde;" horiz-adv-x="377" d="M377 332q0 -64 -22.5 -123.5t-57.5 -112.5q-17 -25 -36.5 -48.5t-42.5 -41.5t-50.5 -29t-59.5 -11q-4 0 -13 0.5t-12 1.5q-15 5 -27.5 16.5t-19.5 25.5q-29 -81 -62 -159t-78 -151q-14 -23 -29 -46t-33 -43q-17 -19 -37 -33.5t-44 -22.5q-2 -1 -9.5 -3.5t-9.5 -2.5 q-26 0 -46.5 8.5t-36 23t-27.5 34t-22 41.5q-2 3 -5.5 10.5t-7 16.5t-6.5 17t-3 10q0 6 5 10t11 4q8 0 13 -8q4 -8 7.5 -17t7.5 -17q7 -15 16.5 -31.5t21.5 -31t27.5 -23.5t34.5 -9q1 0 2 -0.5t3 0.5q23 6 42 20.5t34.5 34t28.5 41t24 40.5q51 91 88 187t70 194 q38 113 67 227t56 230q9 39 18 77.5t19 76.5q4 17 7.5 33.5t8.5 32.5q3 11 14 11q16 0 16 -15q0 -20 -4.5 -50t-7.5 -51q-8 -62 -20 -123t-26 -122q25 13 53 23t57 10q19 0 36 -7.5t30.5 -20t22.5 -29.5t12 -35q2 -10 2 -20v-20zM332 340q0 34 -13.5 59t-52.5 25 q-27 0 -57.5 -11t-54.5 -23q-22 -88 -48 -170l-8 -28t-9 -28q-2 -6 -4.5 -12.5t-3.5 -11.5q-3 -14 -3 -29v-29v-16t1.5 -19t5.5 -16.5t12 -9.5q4 -1 12 -1q22 0 43.5 10t40.5 25t35 33.5t27 35.5q31 48 54 103.5t23 112.5z" />
<glyph unicode="&#xdf;" horiz-adv-x="644" d="M665 604q0 -33 -11 -56t-29.5 -38.5t-43.5 -25.5t-52 -19q-11 -4 -20.5 -8t-20.5 -8q-7 -3 -13 -5t-12 -6q-18 -11 -32 -31t-14 -42q0 -5 1 -11t4 -10q7 -12 26 -25.5t41.5 -28t44 -29.5t34.5 -29q14 -16 21 -38.5t7 -44.5q0 -35 -14.5 -67t-39.5 -57.5t-57 -40.5 t-67 -15q-37 0 -63.5 16t-44 41.5t-25.5 57t-8 63.5v11.5t1.5 15t5 12.5t10.5 5q11 0 13 -9t2 -17q0 -23 5.5 -49.5t17.5 -49t31.5 -37.5t47.5 -15q26 0 50 11.5t42.5 30.5t29.5 43.5t11 50.5q0 13 -3.5 24.5t-12.5 21.5q-14 16 -33 28t-37 23q-9 6 -20.5 13.5t-23 16.5 t-21.5 18t-16 18q-7 10 -10.5 26t-3.5 29q0 24 8.5 44.5t23 37t33 29t39.5 20.5q22 8 44.5 15.5t44.5 16.5q16 7 31.5 16.5t20.5 26.5t5 30q0 27 -10 49.5t-27.5 39t-40.5 26t-49 9.5q-39 0 -72.5 -14.5t-61.5 -38t-51 -53.5t-40 -62q-26 -49 -45.5 -100.5t-39.5 -103.5 q-41 -104 -74 -210t-67 -213q-13 -42 -29.5 -93.5t-37.5 -104t-48 -102t-62.5 -88t-80 -62t-99.5 -23.5q-36 0 -72.5 13.5t-69.5 35t-60.5 49.5t-45.5 58q-3 6 -3 11q0 14 13 14q10 0 15 -9q8 -11 15.5 -21.5t16.5 -21.5q37 -40 88 -66t106 -26q77 0 130 56q38 40 65.5 87 t48 98t36.5 103.5t32 104.5q32 108 64.5 215t73.5 212q21 54 41 109.5t47.5 106.5t66 93.5t94.5 70.5q25 13 52 20t55 7q37 0 69.5 -13.5t56.5 -37.5t38 -56t14 -69z" />
<glyph unicode="&#xe0;" horiz-adv-x="457" d="M0 0zM477 156q-26 -53 -54 -94.5t-73 -80.5q-22 -20 -50 -20q-15 0 -28.5 8.5t-18.5 23.5q-2 5 -2.5 14t-1 19t0 19.5t0.5 15.5q-35 -42 -82.5 -71.5t-104.5 -29.5q-3 0 -8.5 2t-8.5 3q-23 11 -34.5 35t-11.5 48q0 33 8.5 65.5t23 63t33.5 58.5t40 53q54 67 124 116.5 t152 79.5q1 1 4 1q7 0 10.5 -5t3.5 -11q0 -9 -7 -12q-17 -9 -33.5 -16.5t-32.5 -16.5q-111 -64 -187 -164q-15 -20 -31 -45t-29 -51.5t-21.5 -54.5t-8.5 -54q0 -4 1 -11.5t3 -15t6.5 -13t10.5 -5.5q29 0 56.5 15t51.5 38t43 49t31 49q23 42 41 84.5t36 85.5q7 18 16.5 42 t18.5 41q4 7 13 7q7 0 12 -4t5 -11l-1 -2q-8 -36 -18 -72.5t-22 -71.5q-5 -14 -12 -31t-11 -29q-2 -7 -2.5 -14t-1.5 -14q-3 -16 -6.5 -31.5t-7.5 -31.5q-5 -20 -8.5 -40.5t-3.5 -41.5v-9t1 -8q7 0 16.5 6t19.5 14.5t18.5 17.5t13.5 14q30 32 57 71q7 8 12.5 17.5t12.5 17.5 q3 5 9 5q7 0 12 -5t5 -12zM415 583q0 -6 -5.5 -13t-11.5 -7t-21 7t-32.5 16t-32.5 18t-21 13q-8 5 -15.5 16.5t-7.5 21.5q0 5 5.5 12.5t10.5 7.5q21 0 39 -13q7 -5 13 -10.5t13 -10.5q36 -25 65 -54q0 -1 0.5 -2t0.5 -2z" />
<glyph unicode="&#xe1;" horiz-adv-x="457" d="M0 0zM477 156q-26 -53 -54 -94.5t-73 -80.5q-22 -20 -50 -20q-15 0 -28.5 8.5t-18.5 23.5q-2 5 -2.5 14t-1 19t0 19.5t0.5 15.5q-35 -42 -82.5 -71.5t-104.5 -29.5q-3 0 -8.5 2t-8.5 3q-23 11 -34.5 35t-11.5 48q0 33 8.5 65.5t23 63t33.5 58.5t40 53q54 67 124 116.5 t152 79.5q1 1 4 1q7 0 10.5 -5t3.5 -11q0 -9 -7 -12q-17 -9 -33.5 -16.5t-32.5 -16.5q-111 -64 -187 -164q-15 -20 -31 -45t-29 -51.5t-21.5 -54.5t-8.5 -54q0 -4 1 -11.5t3 -15t6.5 -13t10.5 -5.5q29 0 56.5 15t51.5 38t43 49t31 49q23 42 41 84.5t36 85.5q7 18 16.5 42 t18.5 41q4 7 13 7q7 0 12 -4t5 -11l-1 -2q-8 -36 -18 -72.5t-22 -71.5q-5 -14 -12 -31t-11 -29q-2 -7 -2.5 -14t-1.5 -14q-3 -16 -6.5 -31.5t-7.5 -31.5q-5 -20 -8.5 -40.5t-3.5 -41.5v-9t1 -8q7 0 16.5 6t19.5 14.5t18.5 17.5t13.5 14q30 32 57 71q7 8 12.5 17.5t12.5 17.5 q3 5 9 5q7 0 12 -5t5 -12zM435 660q-9 -22 -27 -34q-7 -5 -14 -8.5t-15 -8.5q-33 -22 -73 -40q-6 0 -12 6.5t-6 12.5q0 1 0.5 2t0.5 2q18 22 40 41.5t45 36.5q16 11 35 11q10 0 17.5 -5t8.5 -16z" />
<glyph unicode="&#xe2;" horiz-adv-x="457" d="M0 0zM477 156q-26 -53 -54 -94.5t-73 -80.5q-22 -20 -50 -20q-15 0 -28.5 8.5t-18.5 23.5q-2 5 -2.5 14t-1 19t0 19.5t0.5 15.5q-35 -42 -82.5 -71.5t-104.5 -29.5q-3 0 -8.5 2t-8.5 3q-23 11 -34.5 35t-11.5 48q0 33 8.5 65.5t23 63t33.5 58.5t40 53q54 67 124 116.5 t152 79.5q1 1 4 1q7 0 10.5 -5t3.5 -11q0 -9 -7 -12q-17 -9 -33.5 -16.5t-32.5 -16.5q-111 -64 -187 -164q-15 -20 -31 -45t-29 -51.5t-21.5 -54.5t-8.5 -54q0 -4 1 -11.5t3 -15t6.5 -13t10.5 -5.5q29 0 56.5 15t51.5 38t43 49t31 49q23 42 41 84.5t36 85.5q7 18 16.5 42 t18.5 41q4 7 13 7q7 0 12 -4t5 -11l-1 -2q-8 -36 -18 -72.5t-22 -71.5q-5 -14 -12 -31t-11 -29q-2 -7 -2.5 -14t-1.5 -14q-3 -16 -6.5 -31.5t-7.5 -31.5q-5 -20 -8.5 -40.5t-3.5 -41.5v-9t1 -8q7 0 16.5 6t19.5 14.5t18.5 17.5t13.5 14q30 32 57 71q7 8 12.5 17.5t12.5 17.5 q3 5 9 5q7 0 12 -5t5 -12zM516 577q0 -6 -5.5 -13t-11.5 -7l-3 1l-69 42q-3 1 -10 6t-15 10.5t-14.5 9.5t-7.5 4q-8 -7 -22.5 -18.5t-31 -22t-33 -18t-26.5 -7.5q-5 0 -11.5 7t-6.5 13v1q0 1 0.5 1t0.5 1q5 11 21.5 27t37 30.5t40.5 25t32 10.5q15 0 23 -7q30 -21 57.5 -44 t53.5 -48v-2q0 -1 1 -2z" />
<glyph unicode="&#xe3;" horiz-adv-x="457" d="M0 0zM477 156q-26 -53 -54 -94.5t-73 -80.5q-22 -20 -50 -20q-15 0 -28.5 8.5t-18.5 23.5q-2 5 -2.5 14t-1 19t0 19.5t0.5 15.5q-35 -42 -82.5 -71.5t-104.5 -29.5q-3 0 -8.5 2t-8.5 3q-23 11 -34.5 35t-11.5 48q0 33 8.5 65.5t23 63t33.5 58.5t40 53q54 67 124 116.5 t152 79.5q1 1 4 1q7 0 10.5 -5t3.5 -11q0 -9 -7 -12q-17 -9 -33.5 -16.5t-32.5 -16.5q-111 -64 -187 -164q-15 -20 -31 -45t-29 -51.5t-21.5 -54.5t-8.5 -54q0 -4 1 -11.5t3 -15t6.5 -13t10.5 -5.5q29 0 56.5 15t51.5 38t43 49t31 49q23 42 41 84.5t36 85.5q7 18 16.5 42 t18.5 41q4 7 13 7q7 0 12 -4t5 -11l-1 -2q-8 -36 -18 -72.5t-22 -71.5q-5 -14 -12 -31t-11 -29q-2 -7 -2.5 -14t-1.5 -14q-3 -16 -6.5 -31.5t-7.5 -31.5q-5 -20 -8.5 -40.5t-3.5 -41.5v-9t1 -8q7 0 16.5 6t19.5 14.5t18.5 17.5t13.5 14q30 32 57 71q7 8 12.5 17.5t12.5 17.5 q3 5 9 5q7 0 12 -5t5 -12zM494 612q0 -2 -1 -7t-3 -7q-8 -20 -25 -32.5t-38 -12.5q-17 0 -33.5 6t-33 12.5t-32.5 12.5t-33 6q-11 0 -22 -3.5t-20.5 -7t-16 -7t-8.5 -3.5q-6 0 -12.5 5.5t-6.5 11.5q0 1 2 5.5t3 5.5q9 18 25.5 31t36.5 16q5 1 15 1q21 0 41 -7.5t38.5 -17 t35 -17t30.5 -7.5q10 0 15.5 4.5t9.5 10.5l7 10.5t8 4.5q2 0 10 -6t8 -8z" />
<glyph unicode="&#xe4;" horiz-adv-x="457" d="M0 0zM477 156q-26 -53 -54 -94.5t-73 -80.5q-22 -20 -50 -20q-15 0 -28.5 8.5t-18.5 23.5q-2 5 -2.5 14t-1 19t0 19.5t0.5 15.5q-35 -42 -82.5 -71.5t-104.5 -29.5q-3 0 -8.5 2t-8.5 3q-23 11 -34.5 35t-11.5 48q0 33 8.5 65.5t23 63t33.5 58.5t40 53q54 67 124 116.5 t152 79.5q1 1 4 1q7 0 10.5 -5t3.5 -11q0 -9 -7 -12q-17 -9 -33.5 -16.5t-32.5 -16.5q-111 -64 -187 -164q-15 -20 -31 -45t-29 -51.5t-21.5 -54.5t-8.5 -54q0 -4 1 -11.5t3 -15t6.5 -13t10.5 -5.5q29 0 56.5 15t51.5 38t43 49t31 49q23 42 41 84.5t36 85.5q7 18 16.5 42 t18.5 41q4 7 13 7q7 0 12 -4t5 -11l-1 -2q-8 -36 -18 -72.5t-22 -71.5q-5 -14 -12 -31t-11 -29q-2 -7 -2.5 -14t-1.5 -14q-3 -16 -6.5 -31.5t-7.5 -31.5q-5 -20 -8.5 -40.5t-3.5 -41.5v-9t1 -8q7 0 16.5 6t19.5 14.5t18.5 17.5t13.5 14q30 32 57 71q7 8 12.5 17.5t12.5 17.5 q3 5 9 5q7 0 12 -5t5 -12zM423 589q0 -4 -2 -7t-4 -7l-1 -1q2 -6 2 -8q-7 -5 -9.5 -11t-13.5 -6q-10 0 -19 8t-9 18q0 17 3.5 28t24.5 11q9 0 18.5 -7t9.5 -18zM335 589q0 -6 -5 -14h-1v-1q1 -3 1 -8q-6 -5 -9 -11t-14 -6q-9 0 -18 8t-9 18q0 17 3 28t24 11q10 0 19 -7 t9 -18z" />
<glyph unicode="&#xe5;" horiz-adv-x="457" d="M477 156q-26 -53 -54 -94.5t-73 -80.5q-22 -20 -50 -20q-15 0 -28.5 8.5t-18.5 23.5q-2 5 -2.5 14t-1 19t0 19.5t0.5 15.5q-35 -42 -82.5 -71.5t-104.5 -29.5q-3 0 -8.5 2t-8.5 3q-23 11 -34.5 35t-11.5 48q0 33 8.5 65.5t23 63t33.5 58.5t40 53q42 52 93 93t111 72 q-17 8 -27.5 22t-9.5 34v6q1 28 16 51t39 37q2 1 9 4t9 4q5 4 13 5.5t13 1.5q27 0 47 -21t20 -47q0 -58 -41 -89q-3 -3 -5 -4q-17 -9 -33.5 -16.5t-32.5 -16.5q-111 -64 -187 -164q-15 -20 -31 -45t-29 -51.5t-21.5 -54.5t-8.5 -54q0 -4 1 -11.5t3 -15t6.5 -13t10.5 -5.5 q29 0 56.5 15t51.5 38t43 49t31 49q23 42 41 84.5t36 85.5q7 18 16.5 42t18.5 41q4 7 13 7q7 0 12 -4t5 -11l-1 -2q-8 -36 -18 -72.5t-22 -71.5q-5 -14 -12 -31t-11 -29q-2 -7 -2.5 -14t-1.5 -14q-3 -16 -6.5 -31.5t-7.5 -31.5q-5 -20 -8.5 -40.5t-3.5 -41.5v-9t1 -8 q7 0 16.5 6t19.5 14.5t18.5 17.5t13.5 14q30 32 57 71q7 8 12.5 17.5t12.5 17.5q3 5 9 5q7 0 12 -5t5 -12zM383 544q0 17 -7.5 24.5t-21.5 12.5q-15 -11 -26.5 -25.5t-11.5 -34.5q0 -27 26 -27q20 0 30.5 16t10.5 34z" />
<glyph unicode="&#xe6;" horiz-adv-x="609" d="M645 443q0 -26 -12 -50.5t-31 -47t-41 -41t-41 -31.5q-30 -20 -62.5 -37.5t-69.5 -17.5q-8 0 -18 2t-10 13q0 13 14 17q4 1 8 1t8 1q21 6 43 19q18 10 44.5 30.5t52 44.5t43.5 50t18 49q0 15 -16 15q-7 0 -13 -2l-12 -4q-31 -11 -61.5 -30.5t-53.5 -41.5 q-19 -19 -40.5 -46.5t-31.5 -51.5q-5 -11 -7.5 -21.5t-6.5 -21.5t-8.5 -21.5t-7.5 -21.5q-5 -14 -5.5 -30.5t-0.5 -31.5q0 -14 1 -27t3 -26q2 -12 7.5 -24.5t13.5 -23t18.5 -17t24.5 -6.5q8 0 15.5 2.5t14.5 6.5q28 16 51 41.5t42 50.5q5 8 10 15.5t10 14.5q4 6 11 6 q6 0 11 -4.5t5 -10.5q0 -3 -2 -7q-12 -22 -30 -49t-40.5 -50.5t-49 -39.5t-54.5 -16q-25 0 -44 12t-31.5 30.5t-20 41.5t-10.5 44q-19 -29 -42 -56t-50 -47.5t-59 -32.5t-69 -12q-3 0 -9.5 2.5t-9.5 3.5q-23 11 -33.5 35t-10.5 48q0 33 9 65t23.5 62.5t33.5 58.5t39 53 q55 67 124.5 116.5t151.5 79.5q1 1 4 1q7 0 11 -5t4 -11q0 -9 -8 -12q-17 -9 -33 -16.5t-33 -16.5q-54 -32 -101.5 -72.5t-85.5 -91.5q-15 -20 -31 -45t-29 -51.5t-21.5 -54.5t-8.5 -54q0 -4 1 -11.5t3 -15t6.5 -13t10.5 -5.5q29 0 56.5 15t51 37.5t43 49t31.5 49.5 q12 22 23.5 44.5t19.5 45.5q4 9 6.5 18.5t6.5 18.5q5 11 10.5 22.5t10.5 22.5q8 17 17 41.5t18 39.5q6 7 13 7q8 0 13 -5q16 17 39 35.5t48.5 34t52 25.5t51.5 10q30 0 47 -20.5t17 -49.5z" />
<glyph unicode="&#xe7;" horiz-adv-x="326" d="M346 471q0 -10 -8 -13q-17 -8 -33.5 -15t-32.5 -18q-67 -41 -115 -104t-68 -139q-9 -39 -9 -79q0 -14 2 -30.5t7.5 -32.5t15 -29t24.5 -19q1 -1 3.5 -1h3.5q25 0 46 13.5t38 30.5q27 27 51 62l10 14t10 13q3 5 9 5t11.5 -4.5t5.5 -10.5q0 -2 -4.5 -10t-10.5 -17.5 t-11.5 -18t-7.5 -11.5q-13 -20 -27 -38t-31 -33t-36.5 -24.5t-43.5 -12.5q-1 -11 -2.5 -21.5t-3.5 -21.5q21 -2 42.5 -11t38 -24t25 -35.5t2.5 -44.5q-5 -18 -16 -33t-26.5 -26.5t-33 -19.5t-34.5 -13q-1 0 -6 -1.5l-10 -3t-9 -2.5l-5 -2q-5 0 -9 7t-3 11q3 8 9 11 q10 4 25 11t29.5 15.5t26 19t14.5 22.5q3 15 -6 28t-20 21q-14 11 -32 13.5t-38 1.5q-5 2 -13.5 9.5t-12.5 12.5l1 5q3 15 10 36t16 39q-15 6 -27 18t-20.5 27.5t-13.5 32t-8 31.5q-2 12 -3 24t-1 25q0 43 10 82q10 44 29.5 87t47.5 80t64 65.5t80 45.5q15 6 34 11.5t36 5.5 q5 0 9.5 -6t4.5 -11z" />
<glyph unicode="&#xe8;" horiz-adv-x="359" d="M36 0zM395 417q0 -25 -12 -49.5t-30.5 -46.5t-40.5 -40t-41 -31q-29 -20 -60.5 -37t-68.5 -17q-8 0 -17.5 2t-9.5 13q0 14 13 17q3 1 7 1t8 1q11 2 21.5 7t21.5 11q17 11 43 31t51 44t42.5 49t17.5 47q0 14 -15 14q-6 0 -12 -2l-12 -4q-48 -16 -88 -48.5t-69 -75.5 t-45.5 -92t-16.5 -98q0 -16 2.5 -36.5t10 -38.5t20.5 -30.5t34 -12.5q8 0 15 2.5t14 6.5q27 15 50 40.5t41 51.5q5 6 9.5 13t9.5 14q3 5 10 5q6 0 11.5 -4t5.5 -11q0 -2 -2 -6q-12 -22 -30 -48.5t-40 -49.5t-47.5 -38.5t-53.5 -15.5q-31 0 -51.5 17.5t-32.5 43t-17 55 t-5 53.5q0 76 32 145.5t86 122.5q16 16 37 32.5t44.5 30t48 22t47.5 8.5q29 0 46.5 -19.5t17.5 -48.5zM415 573q0 -6 -5.5 -13t-11.5 -7t-21 7t-32.5 16t-32.5 18t-21 13q-8 5 -15.5 16.5t-7.5 21.5q0 5 5.5 12.5t10.5 7.5q21 0 39 -13q7 -5 13 -10.5t13 -10.5 q36 -25 65 -54q0 -1 0.5 -2t0.5 -2z" />
<glyph unicode="&#xe9;" horiz-adv-x="359" d="M36 0zM395 417q0 -25 -12 -49.5t-30.5 -46.5t-40.5 -40t-41 -31q-29 -20 -60.5 -37t-68.5 -17q-8 0 -17.5 2t-9.5 13q0 14 13 17q3 1 7 1t8 1q11 2 21.5 7t21.5 11q17 11 43 31t51 44t42.5 49t17.5 47q0 14 -15 14q-6 0 -12 -2l-12 -4q-48 -16 -88 -48.5t-69 -75.5 t-45.5 -92t-16.5 -98q0 -16 2.5 -36.5t10 -38.5t20.5 -30.5t34 -12.5q8 0 15 2.5t14 6.5q27 15 50 40.5t41 51.5q5 6 9.5 13t9.5 14q3 5 10 5q6 0 11.5 -4t5.5 -11q0 -2 -2 -6q-12 -22 -30 -48.5t-40 -49.5t-47.5 -38.5t-53.5 -15.5q-31 0 -51.5 17.5t-32.5 43t-17 55 t-5 53.5q0 76 32 145.5t86 122.5q16 16 37 32.5t44.5 30t48 22t47.5 8.5q29 0 46.5 -19.5t17.5 -48.5zM415 650q-9 -22 -27 -34q-7 -5 -14 -8.5t-15 -8.5q-33 -22 -73 -40q-6 0 -12 6.5t-6 12.5q0 1 0.5 2t0.5 2q18 22 40 41.5t45 36.5q16 11 35 11q10 0 17.5 -5t8.5 -16z " />
<glyph unicode="&#xea;" horiz-adv-x="359" d="M36 0zM395 417q0 -25 -12 -49.5t-30.5 -46.5t-40.5 -40t-41 -31q-29 -20 -60.5 -37t-68.5 -17q-8 0 -17.5 2t-9.5 13q0 14 13 17q3 1 7 1t8 1q11 2 21.5 7t21.5 11q17 11 43 31t51 44t42.5 49t17.5 47q0 14 -15 14q-6 0 -12 -2l-12 -4q-48 -16 -88 -48.5t-69 -75.5 t-45.5 -92t-16.5 -98q0 -16 2.5 -36.5t10 -38.5t20.5 -30.5t34 -12.5q8 0 15 2.5t14 6.5q27 15 50 40.5t41 51.5q5 6 9.5 13t9.5 14q3 5 10 5q6 0 11.5 -4t5.5 -11q0 -2 -2 -6q-12 -22 -30 -48.5t-40 -49.5t-47.5 -38.5t-53.5 -15.5q-31 0 -51.5 17.5t-32.5 43t-17 55 t-5 53.5q0 76 32 145.5t86 122.5q16 16 37 32.5t44.5 30t48 22t47.5 8.5q29 0 46.5 -19.5t17.5 -48.5zM485 577q0 -6 -5.5 -13t-11.5 -7l-3 1l-69 42q-3 1 -10 6t-15 10.5t-14.5 9.5t-7.5 4q-8 -7 -22.5 -18.5t-31 -22t-33 -18t-26.5 -7.5q-5 0 -11.5 7t-6.5 13v1q0 1 0.5 1 t0.5 1q5 11 21.5 27t37 30.5t40.5 25t32 10.5q15 0 23 -7q30 -21 57.5 -44t53.5 -48v-2q0 -1 1 -2z" />
<glyph unicode="&#xeb;" horiz-adv-x="359" d="M36 0zM395 417q0 -25 -12 -49.5t-30.5 -46.5t-40.5 -40t-41 -31q-29 -20 -60.5 -37t-68.5 -17q-8 0 -17.5 2t-9.5 13q0 14 13 17q3 1 7 1t8 1q11 2 21.5 7t21.5 11q17 11 43 31t51 44t42.5 49t17.5 47q0 14 -15 14q-6 0 -12 -2l-12 -4q-48 -16 -88 -48.5t-69 -75.5 t-45.5 -92t-16.5 -98q0 -16 2.5 -36.5t10 -38.5t20.5 -30.5t34 -12.5q8 0 15 2.5t14 6.5q27 15 50 40.5t41 51.5q5 6 9.5 13t9.5 14q3 5 10 5q6 0 11.5 -4t5.5 -11q0 -2 -2 -6q-12 -22 -30 -48.5t-40 -49.5t-47.5 -38.5t-53.5 -15.5q-31 0 -51.5 17.5t-32.5 43t-17 55 t-5 53.5q0 76 32 145.5t86 122.5q16 16 37 32.5t44.5 30t48 22t47.5 8.5q29 0 46.5 -19.5t17.5 -48.5zM413 600q0 -4 -2 -7t-4 -7l-1 -1q2 -6 2 -8q-7 -5 -9.5 -11t-13.5 -6q-10 0 -19 8t-9 18q0 17 3.5 28t24.5 11q9 0 18.5 -7t9.5 -18zM325 600q0 -6 -5 -14h-1v-1 q1 -3 1 -8q-6 -5 -9 -11t-14 -6q-9 0 -18 8t-9 18q0 17 3 28t24 11q10 0 19 -7t9 -18z" />
<glyph unicode="&#xec;" horiz-adv-x="265" d="M67 0zM289 107q0 -5 -3 -8q-19 -23 -36.5 -45.5t-37 -41.5t-43.5 -32.5t-55 -19.5q-27 12 -37 31.5t-10 47.5v36q0 26 5.5 54t11.5 54q9 39 20.5 84t27 89.5t35.5 86t45 72.5q5 5 10 5q6 0 12 -4.5t6 -11.5v-2q-17 -53 -38.5 -111.5t-41 -119t-33 -120.5t-13.5 -116 q0 -6 0.5 -17t6.5 -14q22 4 46.5 23t46 40t37.5 38t22 17q5 0 10.5 -5t5.5 -10zM282 623q0 -6 -5.5 -13t-11.5 -7t-21 7t-32.5 16t-32.5 18t-21 13q-8 5 -15.5 16.5t-7.5 21.5q0 5 5.5 12.5t10.5 7.5q21 0 39 -13q7 -5 13 -10.5t13 -10.5q36 -25 65 -54q0 -1 0.5 -2t0.5 -2z " />
<glyph unicode="&#xed;" horiz-adv-x="265" d="M67 0zM289 107q0 -5 -3 -8q-19 -23 -36.5 -45.5t-37 -41.5t-43.5 -32.5t-55 -19.5q-27 12 -37 31.5t-10 47.5v36q0 26 5.5 54t11.5 54q9 39 20.5 84t27 89.5t35.5 86t45 72.5q5 5 10 5q6 0 12 -4.5t6 -11.5v-2q-17 -53 -38.5 -111.5t-41 -119t-33 -120.5t-13.5 -116 q0 -6 0.5 -17t6.5 -14q22 4 46.5 23t46 40t37.5 38t22 17q5 0 10.5 -5t5.5 -10zM405 690q-9 -22 -27 -34q-7 -5 -14 -8.5t-15 -8.5q-33 -22 -73 -40q-6 0 -12 6.5t-6 12.5q0 1 0.5 2t0.5 2q18 22 40 41.5t45 36.5q16 11 35 11q10 0 17.5 -5t8.5 -16z" />
<glyph unicode="&#xee;" horiz-adv-x="265" d="M67 0zM289 107q0 -5 -3 -8q-19 -23 -36.5 -45.5t-37 -41.5t-43.5 -32.5t-55 -19.5q-27 12 -37 31.5t-10 47.5v36q0 26 5.5 54t11.5 54q9 39 20.5 84t27 89.5t35.5 86t45 72.5q5 5 10 5q6 0 12 -4.5t6 -11.5v-2q-17 -53 -38.5 -111.5t-41 -119t-33 -120.5t-13.5 -116 q0 -6 0.5 -17t6.5 -14q22 4 46.5 23t46 40t37.5 38t22 17q5 0 10.5 -5t5.5 -10zM393 598q0 -6 -5.5 -13t-11.5 -7l-3 1l-69 42q-3 1 -10 6t-15 10.5t-14.5 9.5t-7.5 4q-8 -7 -22.5 -18.5t-31 -22t-33 -18t-26.5 -7.5q-5 0 -11.5 7t-6.5 13v1q0 1 0.5 1t0.5 1q5 11 21.5 27 t37 30.5t40.5 25t32 10.5q15 0 23 -7q30 -21 57.5 -44t53.5 -48v-2q0 -1 1 -2z" />
<glyph unicode="&#xef;" horiz-adv-x="265" d="M67 0zM289 107q0 -5 -3 -8q-19 -23 -36.5 -45.5t-37 -41.5t-43.5 -32.5t-55 -19.5q-27 12 -37 31.5t-10 47.5v36q0 26 5.5 54t11.5 54q9 39 20.5 84t27 89.5t35.5 86t45 72.5q5 5 10 5q6 0 12 -4.5t6 -11.5v-2q-17 -53 -38.5 -111.5t-41 -119t-33 -120.5t-13.5 -116 q0 -6 0.5 -17t6.5 -14q22 4 46.5 23t46 40t37.5 38t22 17q5 0 10.5 -5t5.5 -10zM341 660q0 -4 -2 -7t-4 -7l-1 -1q2 -6 2 -8q-7 -5 -9.5 -11t-13.5 -6q-10 0 -19 8t-9 18q0 17 3.5 28t24.5 11q9 0 18.5 -7t9.5 -18zM253 660q0 -6 -5 -14h-1v-1q1 -3 1 -8q-6 -5 -9 -11 t-14 -6q-9 0 -18 8t-9 18q0 17 3 28t24 11q10 0 19 -7t9 -18z" />
<glyph unicode="&#xf0;" horiz-adv-x="445" d="M508 718q-10 -14 -28 -26.5t-32 -20.5q-10 -6 -19.5 -11t-20.5 -10q6 -10 10 -20q31 -69 33.5 -148.5t-8.5 -161.5q-8 -57 -30 -121.5t-57.5 -119.5t-84.5 -91t-110 -36q-33 0 -57 17.5t-40.5 44.5t-24.5 58.5t-8 59.5q0 33 9 65q28 92 90 164t151 108q2 1 5 1 q7 0 10.5 -5t3.5 -11q0 -7 -8 -12q-14 -8 -28 -15.5t-28 -18.5q-55 -40 -94 -99t-59 -124q-7 -21 -7 -47q0 -21 6 -45t18 -44.5t30.5 -34t43.5 -13.5q16 0 30.5 6t27.5 15q38 27 68 70t51 92.5t32 101t11 97.5v12q-2 26 -17.5 44t-38.5 29q-7 3 -13.5 5t-12.5 5 q-10 4 -10 14q0 7 4 12t11 4h1q46 -3 84 -33q-3 32 -10.5 64.5t-20.5 61.5l-6 12t-6 11q-32 -17 -66 -32.5t-68 -27.5q-6 -1 -11 2q-2 2 -4.5 11.5t-0.5 11.5q1 2 12.5 9.5t28.5 18t38.5 23.5t42.5 26q-32 40 -78 66q-8 5 -16.5 8t-17.5 8q-5 2 -6 6q-2 5 0 12.5t8 9.5 q4 2 6 1q46 -5 84 -27t67 -56q15 9 26.5 15.5t16.5 9.5t16.5 8t24 9.5t24 6.5t16.5 -1q2 -2 5 -12t1 -12z" />
<glyph unicode="&#xf1;" horiz-adv-x="463" d="M0 0zM504 67q0 -6 -5 -9q-11 -9 -26 -20t-32 -21.5t-33.5 -19.5t-29.5 -14q-23 -10 -43 -10q-30 0 -43.5 21.5t-13.5 47.5q0 31 10 70.5t24 80.5t29.5 80.5t26.5 69.5q11 29 20 58.5t12 61.5q-18 -2 -49 -20t-64.5 -41.5t-63.5 -46.5t-47 -35l-36 -72 q-24 -47 -45.5 -93.5t-41.5 -94.5q-9 -23 -17 -46t-18 -46q-3 -8 -11 -8q-4 0 -10.5 5t-6.5 9q0 1 1.5 6.5t3 12.5t3 13t1.5 8q17 66 41.5 130t54.5 126q14 29 27 58.5t27 58.5q6 11 14.5 27t18 32.5t19.5 31t19 22.5q4 4 9 4q4 0 11 -5.5t7 -10.5q0 -3 -3.5 -14t-8.5 -23.5 t-9.5 -24t-5.5 -15.5q17 16 39.5 35t48 35t52.5 26.5t51 10.5q14 0 26.5 -12.5t14.5 -26.5q2 -10 2 -15q0 -17 -6.5 -41.5t-12.5 -41.5q-10 -29 -29 -76.5t-38 -97.5t-33 -96t-14 -72q0 -11 2 -18.5t15 -7.5q18 0 42.5 11t47.5 24.5t40 24.5t21 11q6 0 10.5 -5.5t4.5 -11.5z M504 653q0 -2 -1 -7t-3 -7q-8 -20 -25 -32.5t-38 -12.5q-17 0 -33.5 6t-33 12.5t-32.5 12.5t-33 6q-11 0 -22 -3.5t-20.5 -7t-16 -7t-8.5 -3.5q-6 0 -12.5 5.5t-6.5 11.5q0 1 2 5.5t3 5.5q9 18 25.5 31t36.5 16q5 1 15 1q21 0 41 -7.5t38.5 -17t35 -17t30.5 -7.5 q10 0 15.5 4.5t9.5 10.5l7 10.5t8 4.5q2 0 10 -6t8 -8z" />
<glyph unicode="&#xf2;" horiz-adv-x="445" d="M31 0zM445 360q0 -38 -8.5 -83t-25.5 -90t-41.5 -87.5t-56 -75.5t-70 -52.5t-82.5 -19.5q-33 0 -57 17.5t-40.5 44.5t-24.5 58.5t-8 59.5q0 33 9 65q28 92 90 164t151 108q2 1 5 1q7 0 10.5 -5t3.5 -11q0 -7 -8 -12q-14 -8 -28 -15.5t-28 -18.5q-55 -40 -94 -99t-59 -124 q-7 -21 -7 -47q0 -21 6 -45t18 -44.5t30.5 -34t43.5 -13.5q16 0 30.5 6t27.5 15q38 27 68 70t51 92.5t32 101t11 97.5v12q-2 26 -17.5 44t-38.5 29q-7 3 -13.5 5t-12.5 5q-10 4 -10 14q0 7 4 12t11 4h1q22 -2 43.5 -10t38.5 -22t28.5 -33t14.5 -43q2 -10 2 -19.5v-20.5z M446 583q0 -6 -5.5 -13t-11.5 -7t-21 7t-32.5 16t-32.5 18t-21 13q-8 5 -15.5 16.5t-7.5 21.5q0 5 5.5 12.5t10.5 7.5q21 0 39 -13q7 -5 13 -10.5t13 -10.5q36 -25 65 -54q0 -1 0.5 -2t0.5 -2z" />
<glyph unicode="&#xf3;" horiz-adv-x="445" d="M31 0zM445 360q0 -38 -8.5 -83t-25.5 -90t-41.5 -87.5t-56 -75.5t-70 -52.5t-82.5 -19.5q-33 0 -57 17.5t-40.5 44.5t-24.5 58.5t-8 59.5q0 33 9 65q28 92 90 164t151 108q2 1 5 1q7 0 10.5 -5t3.5 -11q0 -7 -8 -12q-14 -8 -28 -15.5t-28 -18.5q-55 -40 -94 -99t-59 -124 q-7 -21 -7 -47q0 -21 6 -45t18 -44.5t30.5 -34t43.5 -13.5q16 0 30.5 6t27.5 15q38 27 68 70t51 92.5t32 101t11 97.5v12q-2 26 -17.5 44t-38.5 29q-7 3 -13.5 5t-12.5 5q-10 4 -10 14q0 7 4 12t11 4h1q22 -2 43.5 -10t38.5 -22t28.5 -33t14.5 -43q2 -10 2 -19.5v-20.5z M435 660q-9 -22 -27 -34q-7 -5 -14 -8.5t-15 -8.5q-33 -22 -73 -40q-6 0 -12 6.5t-6 12.5q0 1 0.5 2t0.5 2q18 22 40 41.5t45 36.5q16 11 35 11q10 0 17.5 -5t8.5 -16z" />
<glyph unicode="&#xf4;" horiz-adv-x="445" d="M31 0zM445 360q0 -38 -8.5 -83t-25.5 -90t-41.5 -87.5t-56 -75.5t-70 -52.5t-82.5 -19.5q-33 0 -57 17.5t-40.5 44.5t-24.5 58.5t-8 59.5q0 33 9 65q28 92 90 164t151 108q2 1 5 1q7 0 10.5 -5t3.5 -11q0 -7 -8 -12q-14 -8 -28 -15.5t-28 -18.5q-55 -40 -94 -99t-59 -124 q-7 -21 -7 -47q0 -21 6 -45t18 -44.5t30.5 -34t43.5 -13.5q16 0 30.5 6t27.5 15q38 27 68 70t51 92.5t32 101t11 97.5v12q-2 26 -17.5 44t-38.5 29q-7 3 -13.5 5t-12.5 5q-10 4 -10 14q0 7 4 12t11 4h1q22 -2 43.5 -10t38.5 -22t28.5 -33t14.5 -43q2 -10 2 -19.5v-20.5z M506 577q0 -6 -5.5 -13t-11.5 -7l-3 1l-69 42q-3 1 -10 6t-15 10.5t-14.5 9.5t-7.5 4q-8 -7 -22.5 -18.5t-31 -22t-33 -18t-26.5 -7.5q-5 0 -11.5 7t-6.5 13v1q0 1 0.5 1t0.5 1q5 11 21.5 27t37 30.5t40.5 25t32 10.5q15 0 23 -7q30 -21 57.5 -44t53.5 -48v-2q0 -1 1 -2z " />
<glyph unicode="&#xf5;" horiz-adv-x="445" d="M31 0zM445 360q0 -38 -8.5 -83t-25.5 -90t-41.5 -87.5t-56 -75.5t-70 -52.5t-82.5 -19.5q-33 0 -57 17.5t-40.5 44.5t-24.5 58.5t-8 59.5q0 33 9 65q28 92 90 164t151 108q2 1 5 1q7 0 10.5 -5t3.5 -11q0 -7 -8 -12q-14 -8 -28 -15.5t-28 -18.5q-55 -40 -94 -99t-59 -124 q-7 -21 -7 -47q0 -21 6 -45t18 -44.5t30.5 -34t43.5 -13.5q16 0 30.5 6t27.5 15q38 27 68 70t51 92.5t32 101t11 97.5v12q-2 26 -17.5 44t-38.5 29q-7 3 -13.5 5t-12.5 5q-10 4 -10 14q0 7 4 12t11 4h1q22 -2 43.5 -10t38.5 -22t28.5 -33t14.5 -43q2 -10 2 -19.5v-20.5z M515 632q0 -2 -1 -7t-3 -7q-8 -20 -25 -32.5t-38 -12.5q-17 0 -33.5 6t-33 12.5t-32.5 12.5t-33 6q-11 0 -22 -3.5t-20.5 -7t-16 -7t-8.5 -3.5q-6 0 -12.5 5.5t-6.5 11.5q0 1 2 5.5t3 5.5q9 18 25.5 31t36.5 16q5 1 15 1q21 0 41 -7.5t38.5 -17t35 -17t30.5 -7.5 q10 0 15.5 4.5t9.5 10.5l7 10.5t8 4.5q2 0 10 -6t8 -8z" />
<glyph unicode="&#xf6;" horiz-adv-x="445" d="M31 0zM445 360q0 -38 -8.5 -83t-25.5 -90t-41.5 -87.5t-56 -75.5t-70 -52.5t-82.5 -19.5q-33 0 -57 17.5t-40.5 44.5t-24.5 58.5t-8 59.5q0 33 9 65q28 92 90 164t151 108q2 1 5 1q7 0 10.5 -5t3.5 -11q0 -7 -8 -12q-14 -8 -28 -15.5t-28 -18.5q-55 -40 -94 -99t-59 -124 q-7 -21 -7 -47q0 -21 6 -45t18 -44.5t30.5 -34t43.5 -13.5q16 0 30.5 6t27.5 15q38 27 68 70t51 92.5t32 101t11 97.5v12q-2 26 -17.5 44t-38.5 29q-7 3 -13.5 5t-12.5 5q-10 4 -10 14q0 7 4 12t11 4h1q22 -2 43.5 -10t38.5 -22t28.5 -33t14.5 -43q2 -10 2 -19.5v-20.5z M444 620q0 -4 -2 -7t-4 -7l-1 -1q2 -6 2 -8q-7 -5 -9.5 -11t-13.5 -6q-10 0 -19 8t-9 18q0 17 3.5 28t24.5 11q9 0 18.5 -7t9.5 -18zM356 620q0 -6 -5 -14h-1v-1q1 -3 1 -8q-6 -5 -9 -11t-14 -6q-9 0 -18 8t-9 18q0 17 3 28t24 11q10 0 19 -7t9 -18z" />
<glyph unicode="&#xf7;" horiz-adv-x="513" d="M370 535q0 -10 -8 -19t-18 -9q-17 0 -28 3.5t-11 23.5q0 10 7 19.5t18 9.5q4 0 7 -2t7 -4l1 -1q3 1 8 1q5 -6 11 -8.5t6 -13.5zM564 392q0 -5 -2.5 -9.5t-7.5 -5.5q-12 -3 -34 -4t-36 -2q-42 -3 -84.5 -4.5t-85.5 -2.5q-23 0 -45 -1t-44 -1q-11 0 -26.5 0.5t-32 2.5 t-31 5t-24.5 8q-4 2 -6.5 6.5t-2.5 8.5t2.5 8.5t7.5 6.5q8 3 21 5t27.5 2.5t28.5 1t23 0.5q26 0 51 -1t51 -1q43 0 85 -1.5t85 -3.5h16.5t19 -0.5t18.5 -1t15 -1.5q11 -4 11 -15zM370 265q0 -10 -8 -18.5t-18 -8.5q-17 0 -28 3t-11 24q0 10 7 19t18 9q6 0 14 -6h1q2 0 4 0.5 t4 0.5q5 -7 11 -9.5t6 -13.5zM357 542h-4q1 -1 2 -1zM357 272h-4q1 0 1 -0.5t1 -0.5z" />
<glyph unicode="&#xf8;" horiz-adv-x="493" d="M565 460q0 -5 -13.5 -19t-31 -29t-34 -28.5t-22.5 -17.5v-7q0 -38 -8.5 -82.5t-25.5 -90t-41.5 -87.5t-56.5 -75t-70.5 -52.5t-82.5 -19.5q-23 0 -42 9.5t-34 25t-26 35t-18 39.5q-22 -18 -43 -36.5t-44 -35.5q-3 -3 -7 -3q-6 0 -11 5.5t-5 11.5q0 3 3 8q23 25 48 48 l50 46q-1 7 -1 13.5v13.5q0 17 2 33t7 32q29 92 90.5 164t151.5 108q1 1 4 1q7 0 10.5 -5t3.5 -11q0 -8 -7 -12q-15 -8 -29.5 -15.5t-28.5 -17.5q-56 -41 -94.5 -99t-58.5 -124q-2 -11 -4 -21t-3 -21q82 73 167 137l76 58t77 56q-1 26 -18 44t-39 29q-7 3 -13.5 5t-13.5 5 q-9 4 -9 14q0 16 14 16q19 0 38 -6.5t35.5 -18t29.5 -26.5t19 -33q4 3 18 12t29.5 18t28.5 16.5t16 7.5q7 0 12 -6t5 -12zM409 325q-80 -57 -157.5 -114t-153.5 -118q4 -16 12.5 -32.5t20 -29.5t26.5 -21.5t34 -8.5q17 0 31 6t28 15q34 24 61 59t47 76t32.5 84.5t18.5 83.5z " />
<glyph unicode="&#xf9;" horiz-adv-x="488" d="M41 0zM529 99q0 -4 -4 -8q-20 -23 -38 -45t-38.5 -41t-45 -33t-55.5 -21q-46 21 -46 71q0 11 2 22.5t1 23.5q-14 -15 -34.5 -33.5t-44 -35.5t-47.5 -28.5t-45 -11.5q-28 0 -46 11.5t-28.5 30t-14.5 42t-4 46.5q0 24 3 47q5 48 17 92.5t29 88.5q13 31 27 61.5t28 60.5 q5 10 10 22.5t11 20.5q5 7 12 7q5 0 11 -5t6 -10q0 -7 -2.5 -19.5t-6 -26t-7 -26t-6.5 -19.5q-11 -36 -25.5 -71.5t-27 -72t-21 -73.5t-8.5 -75q0 -11 1 -25.5t5 -28t12.5 -23t23.5 -9.5q20 0 45.5 13.5t51 32t48.5 38.5t37 33q9 43 24.5 96.5t36.5 107.5t46 102.5t54 81.5 q5 5 10 5q6 0 12 -5t6 -12q-1 -1 -1 -2q-19 -53 -45.5 -114.5t-50.5 -125t-41 -126.5t-17 -120q0 -4 0.5 -8t4.5 -6q23 4 48.5 23t48 40.5t39.5 38.5t22 17q6 0 11.5 -5t5.5 -11zM384 552q0 -6 -5.5 -13t-11.5 -7t-21 7t-32.5 16t-32.5 18t-21 13q-8 5 -15.5 16.5t-7.5 21.5 q0 5 5.5 12.5t10.5 7.5q21 0 39 -13q7 -5 13 -10.5t13 -10.5q36 -25 65 -54q0 -1 0.5 -2t0.5 -2z" />
<glyph unicode="&#xfa;" horiz-adv-x="488" d="M41 0zM529 99q0 -4 -4 -8q-20 -23 -38 -45t-38.5 -41t-45 -33t-55.5 -21q-46 21 -46 71q0 11 2 22.5t1 23.5q-14 -15 -34.5 -33.5t-44 -35.5t-47.5 -28.5t-45 -11.5q-28 0 -46 11.5t-28.5 30t-14.5 42t-4 46.5q0 24 3 47q5 48 17 92.5t29 88.5q13 31 27 61.5t28 60.5 q5 10 10 22.5t11 20.5q5 7 12 7q5 0 11 -5t6 -10q0 -7 -2.5 -19.5t-6 -26t-7 -26t-6.5 -19.5q-11 -36 -25.5 -71.5t-27 -72t-21 -73.5t-8.5 -75q0 -11 1 -25.5t5 -28t12.5 -23t23.5 -9.5q20 0 45.5 13.5t51 32t48.5 38.5t37 33q9 43 24.5 96.5t36.5 107.5t46 102.5t54 81.5 q5 5 10 5q6 0 12 -5t6 -12q-1 -1 -1 -2q-19 -53 -45.5 -114.5t-50.5 -125t-41 -126.5t-17 -120q0 -4 0.5 -8t4.5 -6q23 4 48.5 23t48 40.5t39.5 38.5t22 17q6 0 11.5 -5t5.5 -11zM446 660q-9 -22 -27 -34q-7 -5 -14 -8.5t-15 -8.5q-33 -22 -73 -40q-6 0 -12 6.5t-6 12.5 q0 1 0.5 2t0.5 2q18 22 40 41.5t45 36.5q16 11 35 11q10 0 17.5 -5t8.5 -16z" />
<glyph unicode="&#xfb;" horiz-adv-x="488" d="M41 0zM529 99q0 -4 -4 -8q-20 -23 -38 -45t-38.5 -41t-45 -33t-55.5 -21q-46 21 -46 71q0 11 2 22.5t1 23.5q-14 -15 -34.5 -33.5t-44 -35.5t-47.5 -28.5t-45 -11.5q-28 0 -46 11.5t-28.5 30t-14.5 42t-4 46.5q0 24 3 47q5 48 17 92.5t29 88.5q13 31 27 61.5t28 60.5 q5 10 10 22.5t11 20.5q5 7 12 7q5 0 11 -5t6 -10q0 -7 -2.5 -19.5t-6 -26t-7 -26t-6.5 -19.5q-11 -36 -25.5 -71.5t-27 -72t-21 -73.5t-8.5 -75q0 -11 1 -25.5t5 -28t12.5 -23t23.5 -9.5q20 0 45.5 13.5t51 32t48.5 38.5t37 33q9 43 24.5 96.5t36.5 107.5t46 102.5t54 81.5 q5 5 10 5q6 0 12 -5t6 -12q-1 -1 -1 -2q-19 -53 -45.5 -114.5t-50.5 -125t-41 -126.5t-17 -120q0 -4 0.5 -8t4.5 -6q23 4 48.5 23t48 40.5t39.5 38.5t22 17q6 0 11.5 -5t5.5 -11zM495 588q0 -6 -5.5 -13t-11.5 -7l-3 1l-69 42q-3 1 -10 6t-15 10.5t-14.5 9.5t-7.5 4 q-8 -7 -22.5 -18.5t-31 -22t-33 -18t-26.5 -7.5q-5 0 -11.5 7t-6.5 13v1q0 1 0.5 1t0.5 1q5 11 21.5 27t37 30.5t40.5 25t32 10.5q15 0 23 -7q30 -21 57.5 -44t53.5 -48v-2q0 -1 1 -2z" />
<glyph unicode="&#xfc;" horiz-adv-x="488" d="M41 0zM529 99q0 -4 -4 -8q-20 -23 -38 -45t-38.5 -41t-45 -33t-55.5 -21q-46 21 -46 71q0 11 2 22.5t1 23.5q-14 -15 -34.5 -33.5t-44 -35.5t-47.5 -28.5t-45 -11.5q-28 0 -46 11.5t-28.5 30t-14.5 42t-4 46.5q0 24 3 47q5 48 17 92.5t29 88.5q13 31 27 61.5t28 60.5 q5 10 10 22.5t11 20.5q5 7 12 7q5 0 11 -5t6 -10q0 -7 -2.5 -19.5t-6 -26t-7 -26t-6.5 -19.5q-11 -36 -25.5 -71.5t-27 -72t-21 -73.5t-8.5 -75q0 -11 1 -25.5t5 -28t12.5 -23t23.5 -9.5q20 0 45.5 13.5t51 32t48.5 38.5t37 33q9 43 24.5 96.5t36.5 107.5t46 102.5t54 81.5 q5 5 10 5q6 0 12 -5t6 -12q-1 -1 -1 -2q-19 -53 -45.5 -114.5t-50.5 -125t-41 -126.5t-17 -120q0 -4 0.5 -8t4.5 -6q23 4 48.5 23t48 40.5t39.5 38.5t22 17q6 0 11.5 -5t5.5 -11zM413 600q0 -4 -2 -7t-4 -7l-1 -1q2 -6 2 -8q-7 -5 -9.5 -11t-13.5 -6q-10 0 -19 8t-9 18 q0 17 3.5 28t24.5 11q9 0 18.5 -7t9.5 -18zM325 600q0 -6 -5 -14h-1v-1q1 -3 1 -8q-6 -5 -9 -11t-14 -6q-9 0 -18 8t-9 18q0 17 3 28t24 11q10 0 19 -7t9 -18z" />
<glyph unicode="&#xfd;" horiz-adv-x="443" d="M0 0zM499 470q0 -4 -1 -6q-38 -102 -81 -199.5t-81 -199.5q-19 -49 -33.5 -98t-28.5 -100q-3 -11 -6.5 -20.5t-7.5 -20.5q-12 -37 -25 -72.5t-30 -69.5t-39 -64.5t-50 -53t-61 -36t-72 -13.5q-41 0 -76.5 14.5t-65.5 39t-53.5 58t-41.5 72.5q-2 4 -2 7q-1 8 4.5 11.5 t11.5 3.5q4 0 7 -3t5 -6q7 -11 12.5 -23.5t13.5 -23.5q15 -21 34.5 -40.5t43 -34t49.5 -23t53 -8.5q41 0 76 20q50 30 83 83t57 117q23 62 39.5 126.5t33.5 120.5q-12 -11 -29 -24t-35 -24.5t-36.5 -19.5t-33.5 -8q-29 0 -52.5 19t-29.5 51q-5 20 -6 37q-2 31 2.5 65.5 t13 69t19.5 67t23 59.5q25 58 54 114q6 11 11 23t12 23q4 6 12 6q5 0 11 -5.5t7 -11.5l-3 -15q-9 -42 -23.5 -82t-30.5 -78q-11 -27 -22.5 -56.5t-20 -59.5t-13.5 -60.5t-3 -60.5q1 -9 2.5 -19t5.5 -18.5t10 -14t16 -5.5q17 0 40 11.5t46 27t43.5 32.5t33.5 29 q26 72 56 140.5t65 134.5q14 26 28 53.5t30 52.5q4 7 12 7q7 0 11.5 -5.5t5.5 -12.5zM466 640q-9 -22 -27 -34q-7 -5 -14 -8.5t-15 -8.5q-33 -22 -73 -40q-6 0 -12 6.5t-6 12.5q0 1 0.5 2t0.5 2q18 22 40 41.5t45 36.5q16 11 35 11q10 0 17.5 -5t8.5 -16z" />
<glyph unicode="&#xfe;" horiz-adv-x="671" d="M753 469q0 -54 -19.5 -102.5t-52.5 -89.5t-77 -74.5t-93.5 -56.5t-101.5 -35.5t-101 -12.5q-5 0 -14 -0.5t-18 1t-15.5 4.5t-6.5 11q0 15 12 15h21q44 0 92 11.5t94 33t88 52t73.5 68t50 81.5t18.5 93q0 22 -4.5 46.5t-15.5 44t-29.5 32.5t-46.5 13q-32 0 -63 -14 q-49 -20 -90 -54t-70 -77q-6 -8 -12.5 -17.5t-10.5 -19.5q-7 -15 -13.5 -36t-11.5 -38q-22 -62 -48.5 -121t-65.5 -112q-20 -27 -45.5 -50t-55 -40t-62.5 -26.5t-67 -9.5q-6 0 -9 5t-3 11q0 11 11 14q22 5 38 7.5t38 11.5q46 20 80.5 57t61 82t45.5 94t34 93q13 40 24.5 81 t23.5 82t26 81t34 78q-29 -17 -58 -30.5t-57 -30.5q-20 -13 -40.5 -27.5t-39 -32t-33 -37t-23.5 -42.5q-4 -11 -5 -20t-4 -19q-1 -2 -5.5 -2.5t-6.5 -0.5q-12 0 -15 1.5t-3 12.5q0 35 13 65.5t34 57t47.5 48.5t53.5 39q46 29 94.5 54.5t99.5 45.5q1 1 3 1q7 0 13 -6t6 -13 v-3q-5 -15 -11.5 -29.5t-11.5 -29.5q-12 -32 -22.5 -65t-21.5 -65q18 20 41.5 38t50 32t55 22.5t56.5 8.5q40 0 68 -17t45.5 -44t25.5 -61t8 -68z" />
<glyph unicode="&#xff;" horiz-adv-x="443" d="M0 0zM499 470q0 -4 -1 -6q-38 -102 -81 -199.5t-81 -199.5q-19 -49 -33.5 -98t-28.5 -100q-3 -11 -6.5 -20.5t-7.5 -20.5q-12 -37 -25 -72.5t-30 -69.5t-39 -64.5t-50 -53t-61 -36t-72 -13.5q-41 0 -76.5 14.5t-65.5 39t-53.5 58t-41.5 72.5q-2 4 -2 7q-1 8 4.5 11.5 t11.5 3.5q4 0 7 -3t5 -6q7 -11 12.5 -23.5t13.5 -23.5q15 -21 34.5 -40.5t43 -34t49.5 -23t53 -8.5q41 0 76 20q50 30 83 83t57 117q23 62 39.5 126.5t33.5 120.5q-12 -11 -29 -24t-35 -24.5t-36.5 -19.5t-33.5 -8q-29 0 -52.5 19t-29.5 51q-5 20 -6 37q-2 31 2.5 65.5 t13 69t19.5 67t23 59.5q25 58 54 114q6 11 11 23t12 23q4 6 12 6q5 0 11 -5.5t7 -11.5l-3 -15q-9 -42 -23.5 -82t-30.5 -78q-11 -27 -22.5 -56.5t-20 -59.5t-13.5 -60.5t-3 -60.5q1 -9 2.5 -19t5.5 -18.5t10 -14t16 -5.5q17 0 40 11.5t46 27t43.5 32.5t33.5 29 q26 72 56 140.5t65 134.5q14 26 28 53.5t30 52.5q4 7 12 7q7 0 11.5 -5.5t5.5 -12.5zM433 630q0 -4 -2 -7t-4 -7l-1 -1q2 -6 2 -8q-7 -5 -9.5 -11t-13.5 -6q-10 0 -19 8t-9 18q0 17 3.5 28t24.5 11q9 0 18.5 -7t9.5 -18zM345 630q0 -6 -5 -14h-1v-1q1 -3 1 -8q-6 -5 -9 -11 t-14 -6q-9 0 -18 8t-9 18q0 17 3 28t24 11q10 0 19 -7t9 -18z" />
<glyph unicode="&#x131;" horiz-adv-x="265" d="M289 107q0 -5 -3 -8q-19 -23 -36.5 -45.5t-37 -41.5t-43.5 -32.5t-55 -19.5q-27 12 -37 31.5t-10 47.5v36q0 26 5.5 54t11.5 54q9 39 20.5 84t27 89.5t35.5 86t45 72.5q5 5 10 5q6 0 12 -4.5t6 -11.5v-2q-17 -53 -38.5 -111.5t-41 -119t-33 -120.5t-13.5 -116 q0 -6 0.5 -17t6.5 -14q22 4 46.5 23t46 40t37.5 38t22 17q5 0 10.5 -5t5.5 -10z" />
<glyph unicode="&#x152;" horiz-adv-x="974" d="M1200 830q0 -3 -4 -9q-32 -32 -78.5 -51.5t-90.5 -27.5q-41 -8 -83 -10.5t-84 -4t-84 -4t-83 -9.5q26 -32 37.5 -69t11.5 -78q0 -79 -28 -158h20q25 0 49.5 2.5t47.5 8.5q3 1 9.5 3t13.5 4t12.5 4t6.5 2q5 0 11 -7t6 -11q0 -5 -5 -10q-40 -25 -92 -36t-99 -9 q-17 -36 -39.5 -75.5t-49.5 -77t-56 -72t-59 -61.5q31 -1 61.5 -6t61.5 -10.5t61.5 -10t61.5 -4.5q16 0 31 1t30 4q49 10 83 34.5t69 58.5q2 2 4 3t5 1q5 0 10.5 -5.5t5.5 -11.5q0 -4 -2 -6q-45 -63 -109 -95t-141 -32q-30 0 -60.5 3.5t-60.5 8t-60 8.5t-61 4q-17 0 -34 -1 t-34 -4q-29 -17 -66 -31t-71 -14q-33 0 -64.5 10.5t-56 30t-41 47.5t-19.5 62q-1 9 -1.5 18.5t-0.5 18.5q0 51 11 99t29.5 94t43 89t51.5 85q16 23 36 53.5t37 52.5q6 6 12 6t10.5 -4.5t4.5 -10.5q0 -3 -2 -9q-32 -50 -65.5 -102.5t-61 -108t-45 -114t-17.5 -120.5v-20.5 t2 -20.5q3 -25 15 -45t30 -33.5t41 -21t47 -7.5q15 0 30 3q22 17 47.5 28.5t52.5 17.5q36 25 70.5 59.5t65 74t56 81.5t43.5 81q-39 0 -69 -12l-65 -26q0 -1 -2 -1q-7 0 -12.5 6.5t-5.5 12.5q0 3 1 3q9 19 25.5 32.5t36.5 22t41 12.5t41 4q8 0 15.5 -0.5t15.5 -1.5 q14 36 21.5 73.5t7.5 76.5q0 37 -12 72.5t-41 61.5q-35 -11 -66 -30t-56 -47q-7 -8 -12 -17t-12 -17q-3 -5 -10 -5q-5 0 -11 4.5t-6 10.5q0 3 1 5q20 42 51.5 72t71.5 50q-23 6 -46 6q-43 0 -81.5 -15.5t-75.5 -36.5q-4 -2 -8 -2q-7 0 -11.5 4.5t-4.5 10.5t6 12 q18 16 40.5 29.5t47.5 23.5t50.5 15.5t49.5 5.5q26 0 51.5 -6.5t48.5 -20.5q47 14 95 19.5t96 7.5q45 2 87.5 6t84 12t82.5 20t82 31q1 0 2 0.5t2 0.5q7 0 12 -6t5 -12z" />
<glyph unicode="&#x153;" horiz-adv-x="689" d="M725 444q0 -26 -12 -50.5t-31 -47t-41 -41.5t-41 -32q-30 -20 -62.5 -37.5t-70.5 -17.5q-8 0 -17 2t-9 13q0 14 13 17q3 1 7 1t8 1q11 2 22 7.5t22 11.5q18 11 45 31.5t52 45t42.5 50.5t17.5 50q0 7 -3 10q0 2 -2 2q-8 0 -18.5 -2t-18.5 -4q-29 -8 -60.5 -30t-53.5 -43 q-11 -11 -23.5 -25t-23.5 -30t-20.5 -32t-13.5 -31q-2 -4 -2.5 -8t-1.5 -9q-4 -14 -9 -27.5t-9 -27.5q-3 -13 -4 -27t-1 -28t1 -27t4 -27q2 -12 7 -24t13 -22.5t18.5 -17t24.5 -6.5q8 0 15.5 2.5t14.5 6.5q29 17 52 42.5t42 51.5q5 7 9.5 14t9.5 14q4 6 11 6q6 0 11 -4.5 t5 -10.5q0 -3 -2 -7q-12 -22 -30 -49t-40.5 -50.5t-48.5 -39.5t-55 -16q-24 0 -42 11t-30.5 28.5t-20.5 39t-11 42.5q-17 -27 -38 -51.5t-47 -43.5t-55.5 -30.5t-62.5 -11.5q-32 0 -56.5 18t-41 45t-24.5 58.5t-8 58.5q0 34 9 66q29 92 90.5 164t151.5 108q2 1 5 1 q7 0 10.5 -5t3.5 -11q0 -8 -8 -13q-14 -8 -28.5 -15t-28.5 -18q-56 -40 -94.5 -98.5t-58.5 -124.5q-7 -21 -7 -47q0 -21 6 -45t18 -44.5t30.5 -34.5t43.5 -14q16 0 30.5 6t27.5 15q37 27 67.5 69.5t52 91.5t33 101t11.5 98v6.5t-1 6.5q-2 27 -19.5 45.5t-40.5 29.5l-12 4 t-11 4q-10 4 -10 14q0 7 4 12t11 4h1q22 -2 43.5 -10t39 -21.5t29 -32.5t14.5 -43q1 -6 1.5 -12t0.5 -12q17 21 42 44.5t53.5 43t59.5 32t60 12.5t46.5 -20t17.5 -49z" />
<glyph unicode="&#x178;" horiz-adv-x="742" d="M0 0zM819 559q0 -6 -3 -9q-36 -52 -67.5 -102.5t-59.5 -102.5t-51.5 -106.5t-43.5 -114.5q-20 -58 -33.5 -117.5t-27 -119.5t-28.5 -119.5t-37 -117.5q-20 -52 -46 -98.5t-61.5 -82t-82.5 -56t-108 -20.5q-52 0 -97 16.5t-78.5 47t-52.5 73.5t-19 96q0 54 16.5 109 t45.5 105.5t69 92t87 67.5q4 2 7 2q6 0 10.5 -4.5t4.5 -10.5q0 -8 -8 -13q-10 -8 -20 -14.5t-20 -14.5q-45 -37 -76.5 -86t-51.5 -103q-10 -29 -16 -59.5t-6 -62.5q0 -46 15 -82t42 -60.5t64.5 -37.5t82.5 -13q23 0 45.5 4t44.5 14q35 15 63.5 44t51 67t40 81.5t30.5 87.5 t22.5 86t16.5 76q12 54 24 108.5t27 108.5q-17 -22 -40.5 -47.5t-51 -47t-57.5 -36t-60 -14.5t-48.5 12.5t-28 32t-13 43.5t-3.5 48q0 32 4 62.5t11 60.5q26 118 64 231t95 220q-29 -17 -58.5 -31t-58.5 -31q-39 -24 -77.5 -56t-56.5 -76q-4 -10 -6 -19t-4 -19q-3 -9 -14 -9 q-5 0 -10.5 4t-5.5 10q0 35 12.5 65.5t33.5 56.5t47.5 47.5t53.5 38.5q45 28 91.5 52.5t96.5 42.5q1 3 4.5 5t6.5 2q6 0 11.5 -4.5t5.5 -11.5q0 -3 -1 -4q-15 -41 -35.5 -93t-42.5 -109.5t-43 -118t-37.5 -118t-27 -110t-10.5 -94.5q0 -14 0.5 -28.5t5 -26.5t14 -20t27.5 -8 q13 0 25 4t23 9q36 18 66 44.5t56.5 57.5t50 64.5t44.5 65.5q2 2 2 3q18 38 40 78.5t47 80t53 76t57 66.5q5 5 12 5q6 0 10.5 -4t4.5 -11zM781 793q0 -4 -2 -7t-4 -7l-1 -1q2 -6 2 -8q-7 -5 -9.5 -11t-13.5 -6q-10 0 -19 8t-9 18q0 17 3.5 28t24.5 11q9 0 18.5 -7t9.5 -18z M693 793q0 -6 -5 -14h-1v-1q1 -3 1 -8q-6 -5 -9 -11t-14 -6q-9 0 -18 8t-9 18q0 17 3 28t24 11q10 0 19 -7t9 -18z" />
<glyph unicode="&#x2c6;" d="M730 607q0 -6 -5.5 -13t-11.5 -7l-3 1l-69 42q-3 1 -10 6t-15 10.5t-14.5 9.5t-7.5 4q-8 -7 -22.5 -18.5t-31 -22t-33 -18t-26.5 -7.5q-5 0 -11.5 7t-6.5 13v1q0 1 0.5 1t0.5 1q5 11 21.5 27t37 30.5t40.5 25t32 10.5q15 0 23 -7q30 -21 57.5 -44t53.5 -48v-2q0 -1 1 -2z " />
<glyph unicode="&#x2dc;" d="M739 672q0 -2 -1 -7t-3 -7q-8 -20 -25 -32.5t-38 -12.5q-17 0 -33.5 6t-33 12.5t-32.5 12.5t-33 6q-11 0 -22 -3.5t-20.5 -7t-16 -7t-8.5 -3.5q-6 0 -12.5 5.5t-6.5 11.5q0 1 2 5.5t3 5.5q9 18 25.5 31t36.5 16q5 1 15 1q21 0 41 -7.5t38.5 -17t35 -17t30.5 -7.5 q10 0 15.5 4.5t9.5 10.5l7 10.5t8 4.5q2 0 10 -6t8 -8z" />
<glyph unicode="&#x2000;" horiz-adv-x="493" />
<glyph unicode="&#x2001;" horiz-adv-x="986" />
<glyph unicode="&#x2002;" horiz-adv-x="493" />
<glyph unicode="&#x2003;" horiz-adv-x="986" />
<glyph unicode="&#x2004;" horiz-adv-x="328" />
<glyph unicode="&#x2005;" horiz-adv-x="246" />
<glyph unicode="&#x2006;" horiz-adv-x="164" />
<glyph unicode="&#x2007;" horiz-adv-x="164" />
<glyph unicode="&#x2008;" horiz-adv-x="123" />
<glyph unicode="&#x2009;" horiz-adv-x="197" />
<glyph unicode="&#x200a;" horiz-adv-x="54" />
<glyph unicode="&#x2010;" horiz-adv-x="503" d="M564 392q0 -5 -2.5 -9.5t-7.5 -5.5q-12 -3 -34 -4t-36 -2q-42 -3 -84.5 -4.5t-85.5 -2.5q-23 0 -45 -1t-44 -1q-11 0 -26.5 0.5t-32 2.5t-31 5t-24.5 8q-4 2 -6.5 6.5t-2.5 8.5t2.5 8.5t7.5 6.5q8 3 21 5t27.5 2.5t28.5 1t23 0.5q26 0 51 -1t51 -1q43 0 85 -1.5t85 -3.5 h16.5t19 -0.5t18.5 -1t15 -1.5q11 -4 11 -15z" />
<glyph unicode="&#x2011;" horiz-adv-x="503" d="M564 392q0 -5 -2.5 -9.5t-7.5 -5.5q-12 -3 -34 -4t-36 -2q-42 -3 -84.5 -4.5t-85.5 -2.5q-23 0 -45 -1t-44 -1q-11 0 -26.5 0.5t-32 2.5t-31 5t-24.5 8q-4 2 -6.5 6.5t-2.5 8.5t2.5 8.5t7.5 6.5q8 3 21 5t27.5 2.5t28.5 1t23 0.5q26 0 51 -1t51 -1q43 0 85 -1.5t85 -3.5 h16.5t19 -0.5t18.5 -1t15 -1.5q11 -4 11 -15z" />
<glyph unicode="&#x2012;" horiz-adv-x="503" d="M564 392q0 -5 -2.5 -9.5t-7.5 -5.5q-12 -3 -34 -4t-36 -2q-42 -3 -84.5 -4.5t-85.5 -2.5q-23 0 -45 -1t-44 -1q-11 0 -26.5 0.5t-32 2.5t-31 5t-24.5 8q-4 2 -6.5 6.5t-2.5 8.5t2.5 8.5t7.5 6.5q8 3 21 5t27.5 2.5t28.5 1t23 0.5q26 0 51 -1t51 -1q43 0 85 -1.5t85 -3.5 h16.5t19 -0.5t18.5 -1t15 -1.5q11 -4 11 -15z" />
<glyph unicode="&#x2013;" horiz-adv-x="513" d="M564 392q0 -5 -2.5 -9.5t-7.5 -5.5q-12 -3 -34 -4t-36 -2q-42 -3 -84.5 -4.5t-85.5 -2.5q-23 0 -45 -1t-44 -1q-11 0 -26.5 0.5t-32 2.5t-31 5t-24.5 8q-4 2 -6.5 6.5t-2.5 8.5t2.5 8.5t7.5 6.5q8 3 21 5t27.5 2.5t28.5 1t23 0.5q26 0 51 -1t51 -1q43 0 85 -1.5t85 -3.5 h16.5t19 -0.5t18.5 -1t15 -1.5q11 -4 11 -15z" />
<glyph unicode="&#x2014;" horiz-adv-x="683" d="M713 363q0 -5 -2.5 -9.5t-7.5 -5.5q-8 -2 -20 -2.5t-25.5 -1.5t-26 -1.5t-21.5 -0.5q-57 -3 -114 -5t-114 -2q-30 -1 -60.5 -2t-60.5 -1q-14 0 -34.5 0.5t-41.5 2.5t-41 4.5t-32 7.5q-10 5 -10 16q0 5 2.5 9t7.5 6q11 3 29 5t38 3t38.5 1.5t30.5 0.5q34 0 67.5 -1.5 t66.5 -1.5q109 0 217 -3l72 -3q8 -1 16 -0.5t15 -0.5q5 -2 8 -6t3 -9z" />
<glyph unicode="&#x2018;" horiz-adv-x="107" d="M240 741q-5 -25 -15 -47.5t-15 -45.5l10 -10t5 -13q0 -17 -3.5 -28t-23.5 -11q-8 0 -13.5 3.5t-10.5 8.5q-10 10 -15 17.5t-5 22.5t6.5 31t16 31.5t20 30t18.5 25.5h3q1 0 2 1q3 0 10.5 -7t9.5 -9z" />
<glyph unicode="&#x2019;" horiz-adv-x="107" d="M240 706q0 -15 -6.5 -31t-16 -31.5t-20 -30t-19.5 -25.5q-1 0 -1 -0.5t-1 -0.5q-1 -1 -2 -1q-3 0 -10.5 7t-9.5 10q4 25 14.5 47t15.5 46q-5 4 -10 9t-5 13q0 17 3 28t24 11q13 0 23 -12q10 -9 15.5 -17t5.5 -22z" />
<glyph unicode="&#x201a;" horiz-adv-x="76" d="M15 19q0 -15 -6.5 -30.5t-16 -31t-20.5 -30t-19 -25.5q-1 0 -2.5 -1t-2.5 -1q-2 0 -10 7t-10 10q5 24 15.5 46.5t15.5 46.5q-6 4 -10.5 9t-4.5 13q0 17 3 28t24 11q8 0 13 -3.5t10 -8.5q10 -10 15.5 -17.5t5.5 -22.5z" />
<glyph unicode="&#x201c;" horiz-adv-x="179" d="M312 741q-4 -25 -14.5 -47.5t-15.5 -45.5l10 -10t5 -13q0 -17 -3 -28t-24 -11q-8 0 -13 3.5t-10 8.5q-10 10 -15.5 17.5t-5.5 22.5t6.5 31t16 31.5t20 30t19.5 25.5h2q1 0 2 1q3 0 10.5 -7t9.5 -9zM240 741q-5 -25 -15 -47.5t-15 -45.5l10 -10t5 -13q0 -17 -3.5 -28 t-23.5 -11q-8 0 -13.5 3.5t-10.5 8.5q-10 10 -15 17.5t-5 22.5t6.5 31t16 31.5t20 30t18.5 25.5h3q1 0 2 1q3 0 10.5 -7t9.5 -9z" />
<glyph unicode="&#x201d;" horiz-adv-x="179" d="M312 706q0 -15 -6.5 -31t-16 -31.5t-20 -30t-18.5 -25.5q-1 0 -1.5 -0.5t-1.5 -0.5q-1 -1 -2 -1q-3 0 -10.5 7t-9.5 10q5 25 15 47t15 46q-5 4 -10 9t-5 13q0 17 3.5 28t23.5 11q8 0 13.5 -3.5t10.5 -8.5q10 -9 15 -17t5 -22zM240 706q0 -15 -6.5 -31t-16 -31.5t-20 -30 t-19.5 -25.5q-1 0 -1 -0.5t-1 -0.5q-1 -1 -2 -1q-3 0 -10.5 7t-9.5 10q4 25 14.5 47t15.5 46q-5 4 -10 9t-5 13q0 17 3 28t24 11q13 0 23 -12q10 -9 15.5 -17t5.5 -22z" />
<glyph unicode="&#x201e;" horiz-adv-x="149" d="M87 19q0 -15 -6.5 -30.5t-16 -31t-20 -30t-19.5 -25.5l-4 -2q-3 0 -10.5 7t-9.5 10q4 24 14.5 46.5t15.5 46.5q-5 4 -10 9t-5 13q0 17 3 28t24 11q13 0 23 -12q10 -10 15.5 -17.5t5.5 -22.5zM15 19q0 -15 -6.5 -30.5t-16 -31t-20.5 -30t-19 -25.5q-1 0 -2.5 -1t-2.5 -1 q-2 0 -10 7t-10 10q5 24 15.5 46.5t15.5 46.5q-6 4 -10.5 9t-4.5 13q0 17 3 28t24 11q8 0 13 -3.5t10 -8.5q10 -10 15.5 -17.5t5.5 -22.5z" />
<glyph unicode="&#x2022;" horiz-adv-x="282" d="M292 341v-9t-2 -9l-1 -1l1 -6q1 -18 -7 -33.5t-21.5 -27.5t-30.5 -18.5t-34 -6.5q-20 0 -37 8t-30 21.5t-20.5 30.5t-7.5 36q0 20 8.5 38t22.5 31.5t32 21t38 7.5q17 0 33 -6.5t28.5 -17.5t20 -26t7.5 -33z" />
<glyph unicode="&#x2026;" horiz-adv-x="271" d="M0 0zM35 22q0 -5 -6 -13l-1 -2q2 -4 2 -8q-7 -5 -9.5 -10.5t-13.5 -5.5q-10 0 -18.5 7.5t-8.5 17.5q0 17 3 28t24 11q9 0 18.5 -7t9.5 -18zM168 22q0 -5 -6 -13l-1 -2q2 -4 2 -8q-7 -5 -9.5 -10.5t-13.5 -5.5q-10 0 -18.5 7.5t-8.5 17.5q0 17 3 28t24 11q9 0 18.5 -7 t9.5 -18zM301 22q0 -5 -6 -13l-1 -2q2 -4 2 -8q-7 -5 -9.5 -10.5t-13.5 -5.5q-10 0 -18.5 7.5t-8.5 17.5q0 17 3 28t24 11q9 0 18.5 -7t9.5 -18z" />
<glyph unicode="&#x202f;" horiz-adv-x="197" />
<glyph unicode="&#x2039;" horiz-adv-x="185" d="M247 459q-14 -20 -31 -36t-34 -31t-33 -30.5t-27 -32.5q2 -17 16.5 -38.5t33.5 -43t38 -42t31 -33.5q1 -1 1 -2t1 -1q0 -7 -5.5 -13t-12.5 -6q-3 0 -17 10.5t-30 24t-30 26t-17 16.5q-8 10 -18 19t-18 20q-23 28 -23 62v9t1 9q26 45 66 81t89 54h2q8 0 12.5 -7.5 t4.5 -14.5z" />
<glyph unicode="&#x203a;" horiz-adv-x="196" d="M237 331q0 -18 -6.5 -33t-17.5 -29q-8 -10 -17.5 -19.5t-18.5 -19.5q-3 -4 -17 -16.5t-30 -26t-30 -24t-17 -10.5q-7 0 -12 6t-5 13v2q0 1 0.5 1t0.5 1q12 13 31.5 33t38.5 41.5t33.5 43t16.5 38.5q-11 18 -27 33t-33.5 30t-34.5 31t-30 35q0 1 -0.5 2t-0.5 2q0 6 5.5 13 t12.5 7q1 -1 2 -1q48 -18 88 -54t66 -80q1 -5 1.5 -9.5t0.5 -9.5z" />
<glyph unicode="&#x205f;" horiz-adv-x="246" />
<glyph unicode="&#x20ac;" horiz-adv-x="485" d="M546 578q0 -8 -3.5 -11.5t-9 -4.5t-12 -0.5t-11.5 0.5q-49 0 -94.5 -16t-84 -44.5t-68 -67.5t-44.5 -85q7 -1 13 -1t12 -1q4 -3 7 -7.5t3 -9.5q0 -6 -5.5 -10t-12.5 -6t-15 -3t-12 -2l-2 -9q10 0 19 -0.5t18 -1.5q4 -3 7 -7.5t3 -9.5q0 -3 -2 -7t-5 -5q-10 -4 -21.5 -6 t-22.5 -4q-1 -8 -1 -16v-16q0 -22 3 -47t11 -49t21 -45t34 -33q11 -7 28.5 -10t31.5 -3q40 0 78 17.5t64 47.5q7 8 11.5 15.5t10.5 15.5q5 7 11 7t11.5 -4t5.5 -11q0 -1 -0.5 -2t-0.5 -3q-13 -28 -33.5 -51t-47 -39.5t-56 -25.5t-60.5 -9q-15 0 -38.5 4t-37.5 12 q-30 18 -49.5 45t-30.5 59.5t-14.5 67t-2.5 66.5q-16 -2 -32.5 -4t-33.5 -2q-7 0 -16.5 1t-18 4.5t-14.5 9.5t-6 15t8.5 14t21.5 7q-12 3 -21 9.5t-9 18.5q0 10 12 15.5t27.5 7.5t31 2h22.5h41q13 49 41.5 95t68.5 81t88.5 56t101.5 21q14 0 36.5 -3t35.5 -8q9 -5 9 -14z " />
<glyph unicode="&#xe000;" horiz-adv-x="480" d="M0 480h480v-480h-480v480z" />
<glyph unicode="&#xfb01;" horiz-adv-x="644" d="M674 107q0 -2 -1 -4l-2 -4q-19 -23 -36.5 -45.5t-37.5 -41.5t-44 -32.5t-55 -19.5q-26 12 -36.5 31.5t-10.5 47.5v36q0 26 5.5 54t11.5 54q9 39 21 84t27.5 89.5t35.5 86t45 72.5q3 5 9 5q7 0 12.5 -4.5t5.5 -11.5v-2q-17 -54 -38.5 -112.5t-41 -118.5t-33 -120 t-13.5 -116q0 -6 0.5 -17t6.5 -14q23 4 47.5 23t46 40t37 38t21.5 17t11.5 -5t5.5 -10zM675 703q0 -17 -3 -36.5t-10 -36.5q-3 -12 -15 -12q-6 0 -10.5 5t-4.5 11q0 11 3 24.5t3 27.5q0 16 -3 31.5t-10 27.5t-20 19t-32 7q-15 0 -26 -4q-44 -12 -83 -43.5t-72 -72t-59 -85.5 t-44 -84q20 4 40.5 7t40.5 3q10 0 27.5 -1.5t25.5 -5.5q4 -2 6.5 -8t2.5 -10q0 -3 -1.5 -6.5t-5.5 -5.5q-35 -16 -78 -19.5t-81 -7.5q-24 -60 -44 -120t-42 -120q-26 -69 -46 -138.5t-41 -139.5q-12 -40 -28 -88.5t-37.5 -99t-48.5 -98t-61.5 -84.5t-76.5 -59.5t-93 -22.5 q-41 0 -78.5 12.5t-70.5 34t-60.5 51t-48.5 63.5q-2 4 -2 8q0 6 4.5 10t10.5 4q7 0 13 -7q8 -11 16 -21.5t17 -20.5q38 -41 87.5 -68.5t106.5 -27.5q45 0 82 22t67.5 58t55 82t43 93.5t32.5 93t24 79.5q20 71 40 141t45 139q20 54 37.5 108.5t37.5 108.5q-33 -3 -66 -5 t-66 -2q-4 0 -8 6.5t-4 10.5q0 9 9 13q11 3 21.5 4.5t21.5 3.5q28 5 55.5 10t56.5 10q20 50 49.5 104.5t68.5 103t86.5 85t103.5 50.5q8 2 15.5 3t15.5 1q54 0 81.5 -32t27.5 -84z" />
<glyph unicode="&#xfb02;" horiz-adv-x="675" d="M731 62q0 -8 -8 -14q-17 -17 -43.5 -38.5t-56 -40.5t-59 -32.5t-53.5 -13.5q-23 0 -39 9.5t-26 24.5t-14.5 34.5t-4.5 39.5q0 46 7.5 91.5t19 90.5t26 89t28.5 88q13 39 29 79.5t29.5 81.5t22.5 82.5t9 83.5q0 13 -1.5 24.5t-6.5 20.5t-14.5 14.5t-24.5 5.5 q-31 0 -59.5 -15.5t-54 -40.5t-48 -57t-41 -65.5t-33.5 -65t-26 -56.5q20 4 40 7t40 3q10 0 27.5 -1.5t26.5 -5.5q3 -2 6 -8t3 -10q0 -3 -2 -6.5t-5 -5.5q-35 -16 -78.5 -19.5t-80.5 -7.5q-55 -133 -97 -268t-86 -272q-17 -51 -34.5 -103t-41 -101.5t-54.5 -94t-74 -80.5 q-29 -24 -64.5 -36.5t-73.5 -12.5q-37 0 -73.5 13t-69.5 34.5t-60.5 50t-46.5 59.5q-3 4 -3 10q0 14 14 14q8 0 15 -9q8 -11 15.5 -21.5t16.5 -20.5q36 -39 87.5 -66.5t106.5 -27.5q44 0 80.5 20.5t66 54t53 77t42 88.5t32.5 88t24 77q41 131 79 261.5t89 258.5 q-34 -3 -67.5 -5t-67.5 -2q-4 0 -7.5 6.5t-3.5 10.5q0 9 9 13q10 2 20.5 4t21.5 4q29 5 58 10.5t58 10.5q19 45 44 98t57 102.5t71.5 89t88.5 58.5q31 13 60 13q28 0 47 -9.5t30.5 -26t16.5 -38t5 -45.5q0 -46 -9 -89.5t-22.5 -85.5t-29 -83.5t-29.5 -83.5 q-13 -39 -27.5 -83t-27 -89t-21 -90t-8.5 -85q0 -9 1 -19t5 -19t11 -14.5t19 -5.5q21 0 47 11.5t52.5 28t51 34.5t41.5 30q8 4 12 4q6 0 10.5 -4t4.5 -10z" />
<glyph horiz-adv-x="675" d="M0 0z" />
</font>
</defs>
</svg>
